  0
SECTION
  2
HEADER
  9
$ACADVER
  1
AC1015
  9
$ACADMAINTVER
 70
     6
  9
$DWGCODEPAGE
  3
DOS932
  9
$INSBASE
 10
0.0
 20
0.0
 30
0.0
  9
$EXTMIN
 10
0.0
 20
0.0
 30
0.0
  9
$EXTMAX
 10
420.0
 20
297.0
 30
0.0
  9
$LIMMIN
 10
0.0
 20
0.0
  9
$LIMMAX
 10
420.0
 20
297.0
  9
$ORTHOMODE
 70
     0
  9
$REGENMODE
 70
     1
  9
$FILLMODE
 70
     1
  9
$QTEXTMODE
 70
     0
  9
$MIRRTEXT
 70
     1
  9
$LTSCALE
 40
0.25
  9
$ATTMODE
 70
     1
  9
$TEXTSIZE
 40
4.0
  9
$TRACEWID
 40
0.05
  9
$TEXTSTYLE
  7
Standard
  9
$CLAYER
  8
0
  9
$CELTYPE
  6
Continuous
  9
$CECOLOR
 62
   256
  9
$CELTSCALE
 40
1.0
  9
$DISPSILH
 70
     0
  9
$DIMSCALE
 40
1.0
  9
$DIMASZ
 40
2.0
  9
$DIMEXO
 40
2.0
  9
$DIMDLI
 40
10.0
  9
$DIMRND
 40
0.0
  9
$DIMDLE
 40
0.0
  9
$DIMEXE
 40
2.0
  9
$DIMTP
 40
0.0
  9
$DIMTM
 40
0.0
  9
$DIMTXT
 40
4.0
  9
$DIMCEN
 40
0.09
  9
$DIMTSZ
 40
0.0
  9
$DIMTOL
 70
     0
  9
$DIMLIM
 70
     0
  9
$DIMTIH
 70
     0
  9
$DIMTOH
 70
     0
  9
$DIMSE1
 70
     0
  9
$DIMSE2
 70
     0
  9
$DIMTAD
 70
     3
  9
$DIMZIN
 70
     0
  9
$DIMBLK
  1

  9
$DIMASO
 70
     1
  9
$DIMSHO
 70
     1
  9
$DIMPOST
  1

  9
$DIMAPOST
  1

  9
$DIMALT
 70
     0
  9
$DIMALTD
 70
     2
  9
$DIMALTF
 40
25.4
  9
$DIMLFAC
 40
1.0
  9
$DIMTOFL
 70
     1
  9
$DIMTVP
 40
0.7
  9
$DIMTIX
 70
     0
  9
$DIMSOXD
 70
     0
  9
$DIMSAH
 70
     0
  9
$DIMBLK1
  1

  9
$DIMBLK2
  1

  9
$DIMSTYLE
  2
Standard
  9
$DIMCLRD
 70
     0
  9
$DIMCLRE
 70
     0
  9
$DIMCLRT
 70
     0
  9
$DIMTFAC
 40
0.5
  9
$DIMGAP
 40
0.0
  9
$DIMJUST
 70
     0
  9
$DIMSD1
 70
     0
  9
$DIMSD2
 70
     0
  9
$DIMTOLJ
 70
     1
  9
$DIMTZIN
 70
     0
  9
$DIMALTZ
 70
     0
  9
$DIMALTTZ
 70
     0
  9
$DIMUPT
 70
     0
  9
$DIMDEC
 70
     2
  9
$DIMTDEC
 70
     4
  9
$DIMALTU
 70
     2
  9
$DIMALTTD
 70
     2
  9
$DIMTXSTY
  7
Standard
  9
$DIMAUNIT
 70
     0
  9
$DIMADEC
 70
     0
  9
$DIMALTRND
 40
0.0
  9
$DIMAZIN
 70
     0
  9
$DIMDSEP
 70
     0
  9
$DIMATFIT
 70
     3
  9
$DIMFRAC
 70
     0
  9
$DIMLDRBLK
  1

  9
$DIMLUNIT
 70
     2
  9
$DIMLWD
 70
     0
  9
$DIMLWE
 70
     0
  9
$DIMTMOVE
 70
     0
  9
$LUNITS
 70
     2
  9
$LUPREC
 70
     4
  9
$SKETCHINC
 40
0.1
  9
$FILLETRAD
 40
0.0
  9
$AUNITS
 70
     0
  9
$AUPREC
 70
     0
  9
$MENU
  1
acad
  9
$ELEVATION
 40
0.0
  9
$PELEVATION
 40
0.0
  9
$THICKNESS
 40
0.0
  9
$LIMCHECK
 70
     0
  9
$CHAMFERA
 40
0.0
  9
$CHAMFERB
 40
0.0
  9
$CHAMFERC
 40
0.0
  9
$CHAMFERD
 40
0.0
  9
$SKPOLY
 70
     0
  9
$TDCREATE
 40
2454390.629826389
  9
$TDUCREATE
 40
0.000000000
  9
$TDUPDATE
 40
2454390.629826389
  9
$TDUUPDATE
 40
0.000000000
  9
$TDINDWG
 40
0.0000000000
  9
$TDUSRTIMER
 40
0.0000000000
  9
$USRTIMER
 70
     1
  9
$ANGBASE
 50
0.0
  9
$ANGDIR
 70
     0
  9
$PDMODE
 70
     0
  9
$PDSIZE
 40
0.0
  9
$PLINEWID
 40
0.0
  9
$SPLFRAME
 70
     0
  9
$SPLINETYPE
 70
     6
  9
$SPLINESEGS
 70
     8
  9
$HANDSEED
  5
4F1
  9
$SURFTAB1
 70
     6
  9
$SURFTAB2
 70
     6
  9
$SURFTYPE
 70
     6
  9
$SURFU
 70
     6
  9
$SURFV
 70
     6
  9
$UCSBASE
  2

  9
$UCSNAME
  2

  9
$UCSORG
 10
0.0
 20
0.0
 30
0.0
  9
$UCSXDIR
 10
1.0
 20
0.0
 30
0.0
  9
$UCSYDIR
 10
0.0
 20
1.0
 30
0.0
  9
$UCSORTHOREF
  2

  9
$UCSORTHOVIEW
 70
     0
  9
$UCSORGTOP
 10
0.0
 20
0.0
 30
0.0
  9
$UCSORGBOTTOM
 10
0.0
 20
0.0
 30
0.0
  9
$UCSORGLEFT
 10
0.0
 20
0.0
 30
0.0
  9
$UCSORGRIGHT
 10
0.0
 20
0.0
 30
0.0
  9
$UCSORGFRONT
 10
0.0
 20
0.0
 30
0.0
  9
$UCSORGBACK
 10
0.0
 20
0.0
 30
0.0
  9
$PUCSBASE
  2

  9
$PUCSNAME
  2

  9
$PUCSORG
 10
0.0
 20
0.0
 30
0.0
  9
$PUCSXDIR
 10
1.0
 20
0.0
 30
0.0
  9
$PUCSYDIR
 10
0.0
 20
1.0
 30
0.0
  9
$PUCSORTHOREF
  2

  9
$PUCSORTHOVIEW
 70
     0
  9
$PUCSORGTOP
 10
0.0
 20
0.0
 30
0.0
  9
$PUCSORGBOTTOM
 10
0.0
 20
0.0
 30
0.0
  9
$PUCSORGLEFT
 10
0.0
 20
0.0
 30
0.0
  9
$PUCSORGRIGHT
 10
0.0
 20
0.0
 30
0.0
  9
$PUCSORGFRONT
 10
0.0
 20
0.0
 30
0.0
  9
$PUCSORGBACK
 10
0.0
 20
0.0
 30
0.0
  9
$USERI1
 70
     0
  9
$USERI2
 70
     0
  9
$USERI3
 70
     0
  9
$USERI4
 70
     0
  9
$USERI5
 70
     0
  9
$USERR1
 40
0.0
  9
$USERR2
 40
0.0
  9
$USERR3
 40
0.0
  9
$USERR4
 40
0.0
  9
$USERR5
 40
0.0
  9
$WORLDVIEW
 70
     1
  9
$SHADEDGE
 70
     3
  9
$SHADEDIF
 70
    70
  9
$TILEMODE
 70
     1
  9
$MAXACTVP
 70
    16
  9
$PINSBASE
 10
0.0
 20
0.0
 30
0.0
  9
$PLIMCHECK
 70
     0
  9
$PEXTMIN
 10
0.0
 20
0.0
 30
0.0
  9
$PEXTMAX
 10
420.0
 20
297.0
 30
0.0
  9
$PLIMMIN
 10
0.0
 20
0.0
  9
$PLIMMAX
 10
420.0
 20
297.0
  9
$UNITMODE
 70
     0
  9
$VISRETAIN
 70
     0
  9
$PLINEGEN
 70
     1
  9
$PSLTSCALE
 70
     0
  9
$TREEDEPTH
 70
  3020
  9
$CMLSTYLE
  2
Standard
  9
$CMLJUST
 70
     0
  9
$CMLSCALE
 40
1.0
  9
$PROXYGRAPHICS
 70
     0
  9
$MEASUREMENT
 70
     0
  9
$CELWEIGHT
370
     0
  9
$ENDCAPS
280
     0
  9
$JOINSTYLE
280
     0
  9
$LWDISPLAY
290
     0
  9
$INSUNITS
 70
     0
  9
$HYPERLINKBASE
  1

  9
$STYLESHEET
  1

  9
$XEDIT
290
     1
  9
$CEPSNTYPE
380
     0
  9
$PSTYLEMODE
290
     1
  9
$FINGERPRINTGUID
  2

  9
$VERSIONGUID
  2

  9
$EXTNAMES
290
     1
  9
$PSVPSCALE
 40
0.0
  0
ENDSEC
  0
SECTION
  2
CLASSES
  0
CLASS
  1
LWPOLYLINE
  2
AcDbPolyline
  3
AutoCAD 2000
 90
    32768
280
     0
281
     1
  0
CLASS
  1
IMAGE
  2
AcDbRasterImage
  3
ISM
 90
    32895
280
     0
281
     1
  0
CLASS
  1
OLE2FRAME
  2
AcDbOle2Frame
  3
AutoCAD 2000
 90
    32768
280
     0
281
     1
  0
CLASS
  1
HATCH
  2
AcDbHatch
  3
AutoCAD 2000
 90
    32768
280
     0
281
     1
  0
CLASS
  1
DICTIONARYVAR
  2
AcDbDictionaryVar
  3
AutoCAD 2000
 90
    32768
280
     0
281
     0
  0
CLASS
  1
RASTERVARIABLES
  2
AcDbRasterVariables
  3
ISM
 90
    32768
280
     0
281
     0
  0
CLASS
  1
IMAGEDEF
  2
AcDbRasterImageDef
  3
ISM
 90
    32768
280
     0
281
     0
  0
CLASS
  1
IMAGEDEF_REACTOR
  2
AcDbRasterImageDefReactor
  3
ISM
 90
    32769
280
     0
281
     0
  0
CLASS
  1
IDBUFFER
  2
AcDbIdBuffer
  3
AutoCAD 2000
 90
    32768
280
     0
281
     0
  0
CLASS
  1
SPATIAL_FILTER
  2
AcDbSpatialFilter
  3
AutoCAD 2000
 90
    32768
280
     0
281
     0
  0
CLASS
  1
XRECORD
  2
AcDbXrecord
  3
AutoCAD 2000
 90
    32768
280
     0
281
     0
  0
CLASS
  1
SORTENTSTABLE
  2
AcDbSortentsTable
  3
AutoCAD 2000
 90
    32768
280
     0
281
     0
  0
CLASS
  1
LAYER_INDEX
  2
AcDbLayerIndex
  3
AutoCAD 2000
 90
    32768
280
     0
281
     0
  0
CLASS
  1
SPATIAL_INDEX
  2
AcDbSpatialIndex
  3
AutoCAD 2000
 90
    32768
280
     0
281
     0
  0
CLASS
  1
OBJECT_PTR
  2
CAseDLPNTableRecord
  3
"ASE-LPNTableRecord"
 90
    32769
280
     0
281
     0
  0
CLASS
  1
LAYOUT
  2
AcDbLayout
  3
AutoCAD 2000
 90
        0
280
     0
281
     0
  0
CLASS
  1
PLOTSETTINGS
  2
AcDbPlotSettings
  3
AutoCAD 2000
 90
    32768
280
     0
281
     0
  0
CLASS
  1
ACDBDICTIONARYWDFLT
  2
AcDbDictionaryWithDefault
  3
AutoCAD 2000
 90
        0
280
     0
281
     0
  0
CLASS
  1
ACDBPLACEHOLDER
  2
AcDbPlaceHolder
  3
AutoCAD 2000
 90
        0
280
     0
281
     0
  0
CLASS
  1
VBA_PROJECT
  2
AcDbVbaProject
  3
acadvba
 90
    32768
280
     0
281
     0
  0
CLASS
  1
WIPEOUT
  2
AcDbWipeout
  3
WipeOut|AutoCAD Express Tool|expresstools@autodesk.com
 90
    32895
280
     0
281
     1
  0
CLASS
  1
WIPEOUTVARIABLES
  2
AcDbWipeoutVariables
  3
WipeOut|AutoCAD Express Tool|expresstools@autodesk.com
 90
        0
280
     0
281
     0
  0
CLASS
  1
RTEXT
  2
RText
  3
RText|AutoCAD Express Tool|expresstools@autodesk.com
 90
    32768
280
     0
281
     1
  0
CLASS
  1
ARCALIGNEDTEXT
  2
AcDbArcAlignedText
  3
ATEXT|AutoCAD Express Tool|expresstools@autodesk.com
 90
    32768
280
     0
281
     1
  0
ENDSEC
  0
SECTION
  2
TABLES
  0
TABLE
  2
VPORT
  5
7
100
AcDbSymbolTable
 70
     1
  0
VPORT
  5
15
100
AcDbSymbolTableRecord
100
AcDbViewportTableRecord
  2
*ACTIVE
 70
     0
 10
0.0
 20
0.0
 11
1.0
 21
1.0
 12
6.591288
 22
4.579184
 13
0.0
 23
0.0
 14
1.0
 24
1.0
 15
0.0
 25
0.0
 16
0.0
 26
0.0
 36
1.0
 17
0.0
 27
0.0
 37
0.0
 40
9.158369
 41
0.688564
 42
50.0
 43
0.0
 44
0.0
 50
0.0
 51
0.0
 71
     0
 72
   100
 73
     1
 74
     1
 75
     0
 76
     0
 77
     0
 78
     0
281
     0
 65
     0
110
0.0
120
0.0
130
0.0
111
1.0
121
0.0
131
0.0
112
0.0
122
1.0
132
0.0
345
0
346
0
 79
     0
146
0.0
  0
ENDTAB
  0
TABLE
  2
LTYPE
  5
4
100
AcDbSymbolTable
 70
     9
  0
LTYPE
  5
11
100
AcDbSymbolTableRecord
100
AcDbLinetypeTableRecord
  2
ByBlock
 70
    64
  3

 72
    65
 73
     0
 40
0.0
  0
LTYPE
  5
12
100
AcDbSymbolTableRecord
100
AcDbLinetypeTableRecord
  2
ByLayer
 70
    64
  3

 72
    65
 73
     0
 40
0.0
  0
LTYPE
  5
13
100
AcDbSymbolTableRecord
100
AcDbLinetypeTableRecord
  2
Continuous
 70
    64
  3
Solid line
 72
    65
 73
     0
 40
0.0
  0
LTYPE
  5
25
100
AcDbSymbolTableRecord
100
AcDbLinetypeTableRecord
  2
HIDDEN
 70
    64
  3
- - - - - - - - 
 72
    65
 73
     2
 40
12.6
 49
8.4
 74
     0
 49
-4.2
 74
     0
  0
LTYPE
  5
26
100
AcDbSymbolTableRecord
100
AcDbLinetypeTableRecord
  2
DOT
 70
    64
  3
･ ･ ･ ･ ･ ･ ･ ･ 
 72
    65
 73
     2
 40
8.0
 49
6.0
 74
     0
 49
-2.0
 74
     0
  0
LTYPE
  5
27
100
AcDbSymbolTableRecord
100
AcDbLinetypeTableRecord
  2
CENTER
 70
    64
  3
- ･ - ･ - ･ - ･ 
 72
    65
 73
     4
 40
50.5
 49
30.0
 74
     0
 49
-9.0
 74
     0
 49
2.5
 74
     0
 49
-9.0
 74
     0
  0
LTYPE
  5
28
100
AcDbSymbolTableRecord
100
AcDbLinetypeTableRecord
  2
PHANTOM
 70
    64
  3
- ･･ - ･･ - ･･ - ･･ 
 72
    65
 73
     6
 40
58.0
 49
30.0
 74
     0
 49
-9.0
 74
     0
 49
2.5
 74
     0
 49
-5.0
 74
     0
 49
2.5
 74
     0
 49
-9.0
 74
     0
  0
LTYPE
  5
29
100
AcDbSymbolTableRecord
100
AcDbLinetypeTableRecord
  2
ACAD_ISO06W100
 70
    64
  3
____ ... ____ ... ____
 72
    65
 73
     8
 40
37.5
 49
24.0
 74
     0
 49
-3.0
 74
     0
 49
0.5
 74
     0
 49
-3.0
 74
     0
 49
0.5
 74
     0
 49
-3.0
 74
     0
 49
0.5
 74
     0
 49
-3.0
 74
     0
  0
LTYPE
  5
2A
100
AcDbSymbolTableRecord
100
AcDbLinetypeTableRecord
  2
ACAD_ISO14W100
 70
    64
  3
__ . . . __ . . . __ . . . 
 72
    65
 73
     8
 40
25.5
 49
12.0
 74
     0
 49
-3.0
 74
     0
 49
0.5
 74
     0
 49
-3.0
 74
     0
 49
0.5
 74
     0
 49
-3.0
 74
     0
 49
0.5
 74
     0
 49
-3.0
 74
     0
  0
ENDTAB
  0
TABLE
  2
LAYER
  5
2
100
AcDbSymbolTable
 70
    24
  0
LAYER
  5
14
100
AcDbSymbolTableRecord
100
AcDbLayerTableRecord
  2
0
 70
     0
 62
     7
  6
Continuous
290
     1
370
    -3
390
1D
  0
LAYER
  5
2B
100
AcDbSymbolTableRecord
100
AcDbLayerTableRecord
  2
1
 70
     0
 62
     7
  6
Continuous
290
     1
370
    -3
390
1D
  0
LAYER
  5
2C
100
AcDbSymbolTableRecord
100
AcDbLayerTableRecord
  2
2
 70
     0
 62
   134
  6
Continuous
290
     1
370
    -3
390
1D
  0
LAYER
  5
2D
100
AcDbSymbolTableRecord
100
AcDbLayerTableRecord
  2
3
 70
     0
 62
   214
  6
Continuous
290
     1
370
    -3
390
1D
  0
LAYER
  5
2E
100
AcDbSymbolTableRecord
100
AcDbLayerTableRecord
  2
4
 70
     0
 62
    54
  6
Continuous
290
     1
370
    -3
390
1D
  0
LAYER
  5
2F
100
AcDbSymbolTableRecord
100
AcDbLayerTableRecord
  2
5
 70
     0
 62
    94
  6
Continuous
290
     1
370
    -3
390
1D
  0
LAYER
  5
30
100
AcDbSymbolTableRecord
100
AcDbLayerTableRecord
  2
6
 70
     0
 62
    14
  6
Continuous
290
     1
370
    -3
390
1D
  0
LAYER
  5
31
100
AcDbSymbolTableRecord
100
AcDbLayerTableRecord
  2
7
 70
     0
 62
     4
  6
Continuous
290
     1
370
    -3
390
1D
  0
LAYER
  5
32
100
AcDbSymbolTableRecord
100
AcDbLayerTableRecord
  2
8
 70
     0
 62
     6
  6
Continuous
290
     1
370
    -3
390
1D
  0
LAYER
  5
33
100
AcDbSymbolTableRecord
100
AcDbLayerTableRecord
  2
9
 70
     0
 62
     2
  6
Continuous
290
     1
370
    -3
390
1D
  0
LAYER
  5
34
100
AcDbSymbolTableRecord
100
AcDbLayerTableRecord
  2
10
 70
     0
 62
     3
  6
Continuous
290
     1
370
    -3
390
1D
  0
LAYER
  5
35
100
AcDbSymbolTableRecord
100
AcDbLayerTableRecord
  2
11
 70
     0
 62
   251
  6
Continuous
290
     1
370
    -3
390
1D
  0
LAYER
  5
36
100
AcDbSymbolTableRecord
100
AcDbLayerTableRecord
  2
12
 70
     0
 62
   136
  6
Continuous
290
     1
370
    -3
390
1D
  0
LAYER
  5
37
100
AcDbSymbolTableRecord
100
AcDbLayerTableRecord
  2
13
 70
     0
 62
   216
  6
Continuous
290
     1
370
    -3
390
1D
  0
LAYER
  5
38
100
AcDbSymbolTableRecord
100
AcDbLayerTableRecord
  2
14
 70
     0
 62
    56
  6
Continuous
290
     1
370
    -3
390
1D
  0
LAYER
  5
39
100
AcDbSymbolTableRecord
100
AcDbLayerTableRecord
  2
15
 70
     0
 62
    96
  6
Continuous
290
     1
370
    -3
390
1D
  0
LAYER
  5
3A
100
AcDbSymbolTableRecord
100
AcDbLayerTableRecord
  2
16
 70
     0
 62
    16
  6
Continuous
290
     1
370
    -3
390
1D
  0
LAYER
  5
3B
100
AcDbSymbolTableRecord
100
AcDbLayerTableRecord
  2
17
 70
     0
 62
   132
  6
Continuous
290
     1
370
    -3
390
1D
  0
LAYER
  5
3C
100
AcDbSymbolTableRecord
100
AcDbLayerTableRecord
  2
18
 70
     0
 62
   212
  6
Continuous
290
     1
370
    -3
390
1D
  0
LAYER
  5
3D
100
AcDbSymbolTableRecord
100
AcDbLayerTableRecord
  2
19
 70
     0
 62
    52
  6
Continuous
290
     1
370
    -3
390
1D
  0
LAYER
  5
3E
100
AcDbSymbolTableRecord
100
AcDbLayerTableRecord
  2
20
 70
     0
 62
     1
  6
Continuous
290
     1
370
    -3
390
1D
  0
LAYER
  5
3F
100
AcDbSymbolTableRecord
100
AcDbLayerTableRecord
  2
21
 70
     0
 62
     7
  6
Continuous
290
     1
370
    -3
390
1D
  0
LAYER
  5
40
100
AcDbSymbolTableRecord
100
AcDbLayerTableRecord
  2
22
 70
     0
 62
     5
  6
Continuous
290
     1
370
    -3
390
1D
  0
LAYER
  5
41
100
AcDbSymbolTableRecord
100
AcDbLayerTableRecord
  2
23
 70
     0
 62
     7
  6
Continuous
290
     1
370
    -3
390
1D
  0
ENDTAB
  0
TABLE
  2
STYLE
  5
3
100
AcDbSymbolTable
 70
     2
  0
STYLE
  5
17
100
AcDbSymbolTableRecord
100
AcDbTextStyleTableRecord
  2
Standard
 70
     0
 40
0.0
 41
1.0
 50
0.0
 71
     0
 42
0.0
  3
txt
  4
bigfont
  0
STYLE
  5
24
100
AcDbSymbolTableRecord
100
AcDbTextStyleTableRecord
  2
T_STANDARD
 70
    68
 40
10.0
 41
1.0
 50
0.0
 71
     0
 42
10.0
  3
txt
  4
bigfont
  0
ENDTAB
  0
TABLE
  2
VIEW
  5
5
100
AcDbSymbolTable
 70
     0
  0
ENDTAB
  0
TABLE
  2
UCS
  5
6
100
AcDbSymbolTable
 70
     0
  0
ENDTAB
  0
TABLE
  2
APPID
  5
8
100
AcDbSymbolTable
 70
     1
  0
APPID
  5
16
100
AcDbSymbolTableRecord
100
AcDbRegAppTableRecord
  2
ACAD
 70
     0
  0
ENDTAB
  0
TABLE
  2
DIMSTYLE
  5
9
100
AcDbSymbolTable
 70
     1
100
AcDbDimStyleTable
 71
     0
  0
DIMSTYLE
105
18
100
AcDbSymbolTableRecord
100
AcDbDimStyleTableRecord
  2
Standard
 70
     0
  3

  4

 40
1.0
 41
0.18
 42
0.0625
 43
0.38
 44
0.18
 45
0.0
 46
0.0
 47
0.0
 48
0.0
 71
     0
 72
     0
 73
     1
 74
     1
 75
     0
 76
     0
 77
     0
 78
     0
 79
     0
140
0.18
141
0.09
142
0.0
143
25.4
144
1.0
145
0.0
146
1.0
147
0.09
148
0.0
170
     0
171
     2
172
     0
173
     0
174
     0
175
     0
176
     0
177
     0
178
     0
179
     0
271
     4
272
     4
273
     2
274
     2
275
     0
276
     0
277
     2
278
    46
279
     0
280
     0
281
     0
282
     0
283
     1
284
     0
285
     0
286
     0
288
     0
340
17
341
0
342
0
343
0
344
0
371
    -2
372
    -2
  0
ENDTAB
  0
TABLE
  2
BLOCK_RECORD
  5
1
100
AcDbSymbolTable
 70
    60
  0
BLOCK_RECORD
  5
A
100
AcDbSymbolTableRecord
100
AcDbBlockTableRecord
  2
*MODEL_SPACE
340
20
  0
BLOCK_RECORD
  5
B
100
AcDbSymbolTableRecord
100
AcDbBlockTableRecord
  2
*PAPER_SPACE
340
21
  0
BLOCK_RECORD
  5
42
100
AcDbSymbolTableRecord
100
AcDbBlockTableRecord
  2
*G0
340
0
102
{BLKREFS
331
45
102
}
  0
BLOCK_RECORD
  5
CB
100
AcDbSymbolTableRecord
100
AcDbBlockTableRecord
  2
*G1
340
0
102
{BLKREFS
331
CF
102
}
  0
BLOCK_RECORD
  5
D0
100
AcDbSymbolTableRecord
100
AcDbBlockTableRecord
  2
*G2
340
0
102
{BLKREFS
331
D4
102
}
  0
BLOCK_RECORD
  5
D5
100
AcDbSymbolTableRecord
100
AcDbBlockTableRecord
  2
*G3
340
0
102
{BLKREFS
331
D9
102
}
  0
BLOCK_RECORD
  5
DA
100
AcDbSymbolTableRecord
100
AcDbBlockTableRecord
  2
*G4
340
0
102
{BLKREFS
331
E1
102
}
  0
BLOCK_RECORD
  5
E2
100
AcDbSymbolTableRecord
100
AcDbBlockTableRecord
  2
*G5
340
0
102
{BLKREFS
331
E9
102
}
  0
BLOCK_RECORD
  5
EA
100
AcDbSymbolTableRecord
100
AcDbBlockTableRecord
  2
*G6
340
0
102
{BLKREFS
331
F1
102
}
  0
BLOCK_RECORD
  5
F3
100
AcDbSymbolTableRecord
100
AcDbBlockTableRecord
  2
*G7
340
0
102
{BLKREFS
331
FA
102
}
  0
BLOCK_RECORD
  5
FE
100
AcDbSymbolTableRecord
100
AcDbBlockTableRecord
  2
*G8
340
0
102
{BLKREFS
331
105
102
}
  0
BLOCK_RECORD
  5
106
100
AcDbSymbolTableRecord
100
AcDbBlockTableRecord
  2
*G9
340
0
102
{BLKREFS
331
10D
102
}
  0
BLOCK_RECORD
  5
10E
100
AcDbSymbolTableRecord
100
AcDbBlockTableRecord
  2
*G10
340
0
102
{BLKREFS
331
115
102
}
  0
BLOCK_RECORD
  5
116
100
AcDbSymbolTableRecord
100
AcDbBlockTableRecord
  2
*G11
340
0
102
{BLKREFS
331
11D
102
}
  0
BLOCK_RECORD
  5
11E
100
AcDbSymbolTableRecord
100
AcDbBlockTableRecord
  2
*G12
340
0
102
{BLKREFS
331
125
102
}
  0
BLOCK_RECORD
  5
126
100
AcDbSymbolTableRecord
100
AcDbBlockTableRecord
  2
*G13
340
0
102
{BLKREFS
331
12D
102
}
  0
BLOCK_RECORD
  5
20C
100
AcDbSymbolTableRecord
100
AcDbBlockTableRecord
  2
*G14
340
0
102
{BLKREFS
331
213
102
}
  0
BLOCK_RECORD
  5
214
100
AcDbSymbolTableRecord
100
AcDbBlockTableRecord
  2
*G15
340
0
102
{BLKREFS
331
21D
102
}
  0
BLOCK_RECORD
  5
21E
100
AcDbSymbolTableRecord
100
AcDbBlockTableRecord
  2
*G16
340
0
102
{BLKREFS
331
225
102
}
  0
BLOCK_RECORD
  5
226
100
AcDbSymbolTableRecord
100
AcDbBlockTableRecord
  2
*G17
340
0
102
{BLKREFS
331
22D
102
}
  0
BLOCK_RECORD
  5
27C
100
AcDbSymbolTableRecord
100
AcDbBlockTableRecord
  2
*D18
340
0
  0
BLOCK_RECORD
  5
290
100
AcDbSymbolTableRecord
100
AcDbBlockTableRecord
  2
*D19
340
0
  0
BLOCK_RECORD
  5
2A4
100
AcDbSymbolTableRecord
100
AcDbBlockTableRecord
  2
*D20
340
0
  0
BLOCK_RECORD
  5
2B8
100
AcDbSymbolTableRecord
100
AcDbBlockTableRecord
  2
*D21
340
0
  0
BLOCK_RECORD
  5
2CC
100
AcDbSymbolTableRecord
100
AcDbBlockTableRecord
  2
*D22
340
0
  0
BLOCK_RECORD
  5
2DF
100
AcDbSymbolTableRecord
100
AcDbBlockTableRecord
  2
*D23
340
0
  0
BLOCK_RECORD
  5
2F2
100
AcDbSymbolTableRecord
100
AcDbBlockTableRecord
  2
*D24
340
0
  0
BLOCK_RECORD
  5
30B
100
AcDbSymbolTableRecord
100
AcDbBlockTableRecord
  2
*G25
340
0
102
{BLKREFS
331
318
102
}
  0
BLOCK_RECORD
  5
329
100
AcDbSymbolTableRecord
100
AcDbBlockTableRecord
  2
*G26
340
0
102
{BLKREFS
331
32D
102
}
  0
BLOCK_RECORD
  5
32E
100
AcDbSymbolTableRecord
100
AcDbBlockTableRecord
  2
*G27
340
0
102
{BLKREFS
331
332
102
}
  0
BLOCK_RECORD
  5
333
100
AcDbSymbolTableRecord
100
AcDbBlockTableRecord
  2
*G28
340
0
102
{BLKREFS
331
337
102
}
  0
BLOCK_RECORD
  5
338
100
AcDbSymbolTableRecord
100
AcDbBlockTableRecord
  2
*G29
340
0
102
{BLKREFS
331
33E
102
}
  0
BLOCK_RECORD
  5
33F
100
AcDbSymbolTableRecord
100
AcDbBlockTableRecord
  2
*G30
340
0
102
{BLKREFS
331
343
102
}
  0
BLOCK_RECORD
  5
344
100
AcDbSymbolTableRecord
100
AcDbBlockTableRecord
  2
*G31
340
0
102
{BLKREFS
331
34B
102
}
  0
BLOCK_RECORD
  5
34C
100
AcDbSymbolTableRecord
100
AcDbBlockTableRecord
  2
*G32
340
0
102
{BLKREFS
331
353
102
}
  0
BLOCK_RECORD
  5
354
100
AcDbSymbolTableRecord
100
AcDbBlockTableRecord
  2
*G33
340
0
102
{BLKREFS
331
35B
102
}
  0
BLOCK_RECORD
  5
35C
100
AcDbSymbolTableRecord
100
AcDbBlockTableRecord
  2
*G34
340
0
102
{BLKREFS
331
363
102
}
  0
BLOCK_RECORD
  5
364
100
AcDbSymbolTableRecord
100
AcDbBlockTableRecord
  2
*G35
340
0
102
{BLKREFS
331
36B
102
}
  0
BLOCK_RECORD
  5
3BE
100
AcDbSymbolTableRecord
100
AcDbBlockTableRecord
  2
*G36
340
0
102
{BLKREFS
331
3C5
102
}
  0
BLOCK_RECORD
  5
3C6
100
AcDbSymbolTableRecord
100
AcDbBlockTableRecord
  2
*G37
340
0
102
{BLKREFS
331
3CD
102
}
  0
BLOCK_RECORD
  5
3E4
100
AcDbSymbolTableRecord
100
AcDbBlockTableRecord
  2
*G38
340
0
102
{BLKREFS
331
3EB
102
}
  0
BLOCK_RECORD
  5
41D
100
AcDbSymbolTableRecord
100
AcDbBlockTableRecord
  2
*G39
340
0
102
{BLKREFS
331
425
102
}
  0
BLOCK_RECORD
  5
426
100
AcDbSymbolTableRecord
100
AcDbBlockTableRecord
  2
*G40
340
0
102
{BLKREFS
331
42E
102
}
  0
BLOCK_RECORD
  5
42F
100
AcDbSymbolTableRecord
100
AcDbBlockTableRecord
  2
*G41
340
0
102
{BLKREFS
331
435
102
}
  0
BLOCK_RECORD
  5
436
100
AcDbSymbolTableRecord
100
AcDbBlockTableRecord
  2
*G42
340
0
102
{BLKREFS
331
43C
102
}
  0
BLOCK_RECORD
  5
43D
100
AcDbSymbolTableRecord
100
AcDbBlockTableRecord
  2
*G43
340
0
102
{BLKREFS
331
44A
102
}
  0
BLOCK_RECORD
  5
44B
100
AcDbSymbolTableRecord
100
AcDbBlockTableRecord
  2
*G44
340
0
102
{BLKREFS
331
454
102
}
  0
BLOCK_RECORD
  5
455
100
AcDbSymbolTableRecord
100
AcDbBlockTableRecord
  2
*G45
340
0
102
{BLKREFS
331
45F
102
}
  0
BLOCK_RECORD
  5
460
100
AcDbSymbolTableRecord
100
AcDbBlockTableRecord
  2
*G46
340
0
102
{BLKREFS
331
46B
102
}
  0
BLOCK_RECORD
  5
46C
100
AcDbSymbolTableRecord
100
AcDbBlockTableRecord
  2
*G47
340
0
102
{BLKREFS
331
476
102
}
  0
BLOCK_RECORD
  5
477
100
AcDbSymbolTableRecord
100
AcDbBlockTableRecord
  2
*G48
340
0
102
{BLKREFS
331
480
102
}
  0
BLOCK_RECORD
  5
481
100
AcDbSymbolTableRecord
100
AcDbBlockTableRecord
  2
*G49
340
0
102
{BLKREFS
331
488
102
}
  0
BLOCK_RECORD
  5
489
100
AcDbSymbolTableRecord
100
AcDbBlockTableRecord
  2
*G50
340
0
102
{BLKREFS
331
494
102
}
  0
BLOCK_RECORD
  5
495
100
AcDbSymbolTableRecord
100
AcDbBlockTableRecord
  2
*G51
340
0
102
{BLKREFS
331
49E
102
}
  0
BLOCK_RECORD
  5
49F
100
AcDbSymbolTableRecord
100
AcDbBlockTableRecord
  2
*G52
340
0
102
{BLKREFS
331
4A7
102
}
  0
BLOCK_RECORD
  5
4A8
100
AcDbSymbolTableRecord
100
AcDbBlockTableRecord
  2
*G53
340
0
102
{BLKREFS
331
4B1
102
}
  0
BLOCK_RECORD
  5
4B6
100
AcDbSymbolTableRecord
100
AcDbBlockTableRecord
  2
*G54
340
0
102
{BLKREFS
331
4BF
102
}
  0
BLOCK_RECORD
  5
4C0
100
AcDbSymbolTableRecord
100
AcDbBlockTableRecord
  2
*G55
340
0
102
{BLKREFS
331
4C8
102
}
  0
BLOCK_RECORD
  5
4C9
100
AcDbSymbolTableRecord
100
AcDbBlockTableRecord
  2
*G56
340
0
102
{BLKREFS
331
4D1
102
}
  0
BLOCK_RECORD
  5
4D8
100
AcDbSymbolTableRecord
100
AcDbBlockTableRecord
  2
*G57
340
0
102
{BLKREFS
331
4E1
102
}
  0
BLOCK_RECORD
  5
4E2
100
AcDbSymbolTableRecord
100
AcDbBlockTableRecord
  2
*G58
340
0
102
{BLKREFS
331
4EA
102
}
  0
BLOCK_RECORD
  5
4EB
100
AcDbSymbolTableRecord
100
AcDbBlockTableRecord
  2
*G59
340
0
102
{BLKREFS
331
4F0
102
}
  0
ENDTAB
  0
ENDSEC
  0
SECTION
  2
BLOCKS
  0
BLOCK
  5
D
100
AcDbEntity
  8
0
100
AcDbBlockBegin
  2
*MODEL_SPACE
 70
     0
 10
0.0
 20
0.0
 30
0.0
  3
*MODEL_SPACE
  1

  0
ENDBLK
  5
E
100
AcDbEntity
  8
0
100
AcDbBlockEnd
  0
BLOCK
  5
F
100
AcDbEntity
 67
     1
  8
0
100
AcDbBlockBegin
  2
*PAPER_SPACE
 70
     0
 10
0.0
 20
0.0
 30
0.0
  3
*PAPER_SPACE
  1

  0
ENDBLK
  5
10
100
AcDbEntity
 67
     1
  8
0
100
AcDbBlockEnd
  0
BLOCK
  5
43
100
AcDbEntity
  8
0
370
     9
  6
Continuous
 62
     7
100
AcDbBlockBegin
  2
*G0
 70
     0
 10
0.0
 20
0.0
 30
0.0
  3
*G0
  1

  0
ENDBLK
  5
44
100
AcDbEntity
  8
0
100
AcDbBlockEnd
  0
BLOCK
  5
CC
100
AcDbEntity
  8
0
370
     9
  6
Continuous
 62
     7
100
AcDbBlockBegin
  2
*G1
 70
     0
 10
0.0
 20
0.0
 30
0.0
  3
*G1
  1

  0
TEXT
  5
CD
100
AcDbEntity
  8
2
370
     9
  6
Continuous
 62
   134
100
AcDbText
 10
325.0
 20
11.5
 30
0.0
 40
4.0
  1
1/1
 41
0.5
 11
325.0
 21
11.5
 31
0.0
100
AcDbText
 73
     1
  0
ENDBLK
  5
CE
100
AcDbEntity
  8
0
100
AcDbBlockEnd
  0
BLOCK
  5
D1
100
AcDbEntity
  8
0
370
     9
  6
Continuous
 62
     7
100
AcDbBlockBegin
  2
*G2
 70
     0
 10
0.0
 20
0.0
 30
0.0
  3
*G2
  1

  0
TEXT
  5
D2
100
AcDbEntity
  8
2
370
     9
  6
Continuous
 62
   134
100
AcDbText
 10
377.5
 20
12.5
 30
0.0
 40
4.0
  1
外観図
 11
377.5
 21
12.5
 31
0.0
100
AcDbText
 73
     1
  0
ENDBLK
  5
D3
100
AcDbEntity
  8
0
100
AcDbBlockEnd
  0
BLOCK
  5
D6
100
AcDbEntity
  8
0
370
     9
  6
Continuous
 62
     7
100
AcDbBlockBegin
  2
*G3
 70
     0
 10
0.0
 20
0.0
 30
0.0
  3
*G3
  1

  0
TEXT
  5
D7
100
AcDbEntity
  8
2
370
     9
  6
Continuous
 62
   134
100
AcDbText
 10
301.0
 20
12.0
 30
0.0
 40
4.0
  1
07/10/16
 41
0.5
 11
301.0
 21
12.0
 31
0.0
100
AcDbText
 73
     1
  0
ENDBLK
  5
D8
100
AcDbEntity
  8
0
100
AcDbBlockEnd
  0
BLOCK
  5
DB
100
AcDbEntity
  8
0
370
     9
  6
Continuous
 62
     7
100
AcDbBlockBegin
  2
*G4
 70
     0
 10
0.0
 20
0.0
 30
0.0
  3
*G4
  1

  0
LINE
  5
DC
100
AcDbEntity
  8
1
370
     9
  6
Continuous
 62
     7
100
AcDbLine
 10
179.0
 20
95.5
 30
0.0
 11
179.0
 21
198.5
 31
0.0
  0
LINE
  5
DD
100
AcDbEntity
  8
1
370
     9
  6
Continuous
 62
     7
100
AcDbLine
 10
179.0
 20
198.5
 30
0.0
 11
184.0
 21
198.5
 31
0.0
  0
LINE
  5
DE
100
AcDbEntity
  8
1
370
     9
  6
Continuous
 62
     7
100
AcDbLine
 10
184.0
 20
198.5
 30
0.0
 11
184.0
 21
95.5
 31
0.0
  0
LINE
  5
DF
100
AcDbEntity
  8
1
370
     9
  6
Continuous
 62
     7
100
AcDbLine
 10
184.0
 20
95.5
 30
0.0
 11
179.0
 21
95.5
 31
0.0
  0
ENDBLK
  5
E0
100
AcDbEntity
  8
0
100
AcDbBlockEnd
  0
BLOCK
  5
E3
100
AcDbEntity
  8
0
370
     9
  6
Continuous
 62
     7
100
AcDbBlockBegin
  2
*G5
 70
     0
 10
0.0
 20
0.0
 30
0.0
  3
*G5
  1

  0
LINE
  5
E4
100
AcDbEntity
  8
1
370
     9
  6
Continuous
 62
     7
100
AcDbLine
 10
343.0
 20
187.5
 30
0.0
 11
343.0
 21
106.5
 31
0.0
  0
LINE
  5
E5
100
AcDbEntity
  8
1
370
     9
  6
Continuous
 62
     7
100
AcDbLine
 10
343.0
 20
106.5
 30
0.0
 11
346.0
 21
106.5
 31
0.0
  0
LINE
  5
E6
100
AcDbEntity
  8
1
370
     9
  6
Continuous
 62
     7
100
AcDbLine
 10
346.0
 20
106.5
 30
0.0
 11
346.0
 21
187.5
 31
0.0
  0
LINE
  5
E7
100
AcDbEntity
  8
1
370
     9
  6
Continuous
 62
     7
100
AcDbLine
 10
346.0
 20
187.5
 30
0.0
 11
343.0
 21
187.5
 31
0.0
  0
ENDBLK
  5
E8
100
AcDbEntity
  8
0
100
AcDbBlockEnd
  0
BLOCK
  5
EB
100
AcDbEntity
  8
0
370
     9
  6
Continuous
 62
     7
100
AcDbBlockBegin
  2
*G6
 70
     0
 10
0.0
 20
0.0
 30
0.0
  3
*G6
  1

  0
LINE
  5
EC
100
AcDbEntity
  8
1
370
     9
  6
Continuous
 62
     7
100
AcDbLine
 10
229.0
 20
194.5
 30
0.0
 11
229.0
 21
99.5
 31
0.0
  0
LINE
  5
ED
100
AcDbEntity
  8
1
370
     9
  6
Continuous
 62
     7
100
AcDbLine
 10
229.0
 20
99.5
 30
0.0
 11
257.0
 21
99.5
 31
0.0
  0
LINE
  5
EE
100
AcDbEntity
  8
1
370
     9
  6
Continuous
 62
     7
100
AcDbLine
 10
257.0
 20
99.5
 30
0.0
 11
257.0
 21
194.5
 31
0.0
  0
LINE
  5
EF
100
AcDbEntity
  8
1
370
     9
  6
Continuous
 62
     7
100
AcDbLine
 10
257.0
 20
194.5
 30
0.0
 11
229.0
 21
194.5
 31
0.0
  0
ENDBLK
  5
F0
100
AcDbEntity
  8
0
100
AcDbBlockEnd
  0
BLOCK
  5
F4
100
AcDbEntity
  8
0
370
     9
  6
Continuous
 62
     7
100
AcDbBlockBegin
  2
*G7
 70
     0
 10
0.0
 20
0.0
 30
0.0
  3
*G7
  1

  0
LINE
  5
F5
100
AcDbEntity
  8
1
370
     9
  6
Continuous
 62
     7
100
AcDbLine
 10
229.0
 20
99.5
 30
0.0
 11
229.0
 21
194.5
 31
0.0
  0
LINE
  5
F6
100
AcDbEntity
  8
1
370
     9
  6
Continuous
 62
     7
100
AcDbLine
 10
229.0
 20
194.5
 30
0.0
 11
203.0
 21
194.5
 31
0.0
  0
LINE
  5
F7
100
AcDbEntity
  8
1
370
     9
  6
Continuous
 62
     7
100
AcDbLine
 10
203.0
 20
194.5
 30
0.0
 11
203.0
 21
99.5
 31
0.0
  0
LINE
  5
F8
100
AcDbEntity
  8
1
370
     9
  6
Continuous
 62
     7
100
AcDbLine
 10
203.0
 20
99.5
 30
0.0
 11
229.0
 21
99.5
 31
0.0
  0
ENDBLK
  5
F9
100
AcDbEntity
  8
0
100
AcDbBlockEnd
  0
BLOCK
  5
FF
100
AcDbEntity
  8
0
370
     9
  6
Continuous
 62
     7
100
AcDbBlockBegin
  2
*G8
 70
     0
 10
0.0
 20
0.0
 30
0.0
  3
*G8
  1

  0
LINE
  5
100
100
AcDbEntity
  8
1
370
     9
  6
Continuous
 62
     7
100
AcDbLine
 10
203.0
 20
195.0
 30
0.0
 11
203.0
 21
99.0
 31
0.0
  0
LINE
  5
101
100
AcDbEntity
  8
1
370
     9
  6
Continuous
 62
     7
100
AcDbLine
 10
203.0
 20
99.0
 30
0.0
 11
188.0
 21
99.0
 31
0.0
  0
LINE
  5
102
100
AcDbEntity
  8
1
370
     9
  6
Continuous
 62
     7
100
AcDbLine
 10
188.0
 20
99.0
 30
0.0
 11
188.0
 21
195.0
 31
0.0
  0
LINE
  5
103
100
AcDbEntity
  8
1
370
     9
  6
Continuous
 62
     7
100
AcDbLine
 10
188.0
 20
195.0
 30
0.0
 11
203.0
 21
195.0
 31
0.0
  0
ENDBLK
  5
104
100
AcDbEntity
  8
0
100
AcDbBlockEnd
  0
BLOCK
  5
107
100
AcDbEntity
  8
0
370
     9
  6
Continuous
 62
     7
100
AcDbBlockBegin
  2
*G9
 70
     0
 10
0.0
 20
0.0
 30
0.0
  3
*G9
  1

  0
LINE
  5
108
100
AcDbEntity
  8
1
370
     9
  6
Continuous
 62
     7
100
AcDbLine
 10
279.0
 20
102.5
 30
0.0
 11
279.0
 21
191.5
 31
0.0
  0
LINE
  5
109
100
AcDbEntity
  8
1
370
     9
  6
Continuous
 62
     7
100
AcDbLine
 10
279.0
 20
191.5
 30
0.0
 11
257.0
 21
191.5
 31
0.0
  0
LINE
  5
10A
100
AcDbEntity
  8
1
370
     9
  6
Continuous
 62
     7
100
AcDbLine
 10
257.0
 20
191.5
 30
0.0
 11
257.0
 21
102.5
 31
0.0
  0
LINE
  5
10B
100
AcDbEntity
  8
1
370
     9
  6
Continuous
 62
     7
100
AcDbLine
 10
257.0
 20
102.5
 30
0.0
 11
279.0
 21
102.5
 31
0.0
  0
ENDBLK
  5
10C
100
AcDbEntity
  8
0
100
AcDbBlockEnd
  0
BLOCK
  5
10F
100
AcDbEntity
  8
0
370
     9
  6
Continuous
 62
     7
100
AcDbBlockBegin
  2
*G10
 70
     0
 10
0.0
 20
0.0
 30
0.0
  3
*G10
  1

  0
LINE
  5
110
100
AcDbEntity
  8
1
370
     9
  6
Continuous
 62
     7
100
AcDbLine
 10
288.0
 20
191.0
 30
0.0
 11
288.0
 21
103.0
 31
0.0
  0
LINE
  5
111
100
AcDbEntity
  8
1
370
     9
  6
Continuous
 62
     7
100
AcDbLine
 10
288.0
 20
103.0
 30
0.0
 11
279.0
 21
103.0
 31
0.0
  0
LINE
  5
112
100
AcDbEntity
  8
1
370
     9
  6
Continuous
 62
     7
100
AcDbLine
 10
279.0
 20
103.0
 30
0.0
 11
279.0
 21
191.0
 31
0.0
  0
LINE
  5
113
100
AcDbEntity
  8
1
370
     9
  6
Continuous
 62
     7
100
AcDbLine
 10
279.0
 20
191.0
 30
0.0
 11
288.0
 21
191.0
 31
0.0
  0
ENDBLK
  5
114
100
AcDbEntity
  8
0
100
AcDbBlockEnd
  0
BLOCK
  5
117
100
AcDbEntity
  8
0
370
     9
  6
Continuous
 62
     7
100
AcDbBlockBegin
  2
*G11
 70
     0
 10
0.0
 20
0.0
 30
0.0
  3
*G11
  1

  0
LINE
  5
118
100
AcDbEntity
  8
1
370
     9
  6
Continuous
 62
     7
100
AcDbLine
 10
288.0
 20
105.5
 30
0.0
 11
288.0
 21
188.5
 31
0.0
  0
LINE
  5
119
100
AcDbEntity
  8
1
370
     9
  6
Continuous
 62
     7
100
AcDbLine
 10
288.0
 20
188.5
 30
0.0
 11
294.0
 21
188.5
 31
0.0
  0
LINE
  5
11A
100
AcDbEntity
  8
1
370
     9
  6
Continuous
 62
     7
100
AcDbLine
 10
294.0
 20
188.5
 30
0.0
 11
294.0
 21
105.5
 31
0.0
  0
LINE
  5
11B
100
AcDbEntity
  8
1
370
     9
  6
Continuous
 62
     7
100
AcDbLine
 10
294.0
 20
105.5
 30
0.0
 11
288.0
 21
105.5
 31
0.0
  0
ENDBLK
  5
11C
100
AcDbEntity
  8
0
100
AcDbBlockEnd
  0
BLOCK
  5
11F
100
AcDbEntity
  8
0
370
     9
  6
Continuous
 62
     7
100
AcDbBlockBegin
  2
*G12
 70
     0
 10
0.0
 20
0.0
 30
0.0
  3
*G12
  1

  0
LINE
  5
120
100
AcDbEntity
  8
1
370
     9
  6
Continuous
 62
     7
100
AcDbLine
 10
297.0
 20
191.0
 30
0.0
 11
297.0
 21
103.0
 31
0.0
  0
LINE
  5
121
100
AcDbEntity
  8
1
370
     9
  6
Continuous
 62
     7
100
AcDbLine
 10
297.0
 20
103.0
 30
0.0
 11
294.0
 21
103.0
 31
0.0
  0
LINE
  5
122
100
AcDbEntity
  8
1
370
     9
  6
Continuous
 62
     7
100
AcDbLine
 10
294.0
 20
103.0
 30
0.0
 11
294.0
 21
191.0
 31
0.0
  0
LINE
  5
123
100
AcDbEntity
  8
1
370
     9
  6
Continuous
 62
     7
100
AcDbLine
 10
294.0
 20
191.0
 30
0.0
 11
297.0
 21
191.0
 31
0.0
  0
ENDBLK
  5
124
100
AcDbEntity
  8
0
100
AcDbBlockEnd
  0
BLOCK
  5
127
100
AcDbEntity
  8
0
370
     9
  6
Continuous
 62
     7
100
AcDbBlockBegin
  2
*G13
 70
     0
 10
0.0
 20
0.0
 30
0.0
  3
*G13
  1

  0
LINE
  5
128
100
AcDbEntity
  8
1
370
     9
  6
Continuous
 62
     7
100
AcDbLine
 10
302.0
 20
103.6
 30
0.0
 11
302.0
 21
190.4
 31
0.0
  0
LINE
  5
129
100
AcDbEntity
  8
1
370
     9
  6
Continuous
 62
     7
100
AcDbLine
 10
302.0
 20
190.4
 30
0.0
 11
297.0
 21
190.4
 31
0.0
  0
LINE
  5
12A
100
AcDbEntity
  8
1
370
     9
  6
Continuous
 62
     7
100
AcDbLine
 10
297.0
 20
190.4
 30
0.0
 11
297.0
 21
103.6
 31
0.0
  0
LINE
  5
12B
100
AcDbEntity
  8
1
370
     9
  6
Continuous
 62
     7
100
AcDbLine
 10
297.0
 20
103.6
 30
0.0
 11
302.0
 21
103.6
 31
0.0
  0
ENDBLK
  5
12C
100
AcDbEntity
  8
0
100
AcDbBlockEnd
  0
BLOCK
  5
20D
100
AcDbEntity
  8
0
370
     9
  6
Continuous
 62
     7
100
AcDbBlockBegin
  2
*G14
 70
     0
 10
0.0
 20
0.0
 30
0.0
  3
*G14
  1

  0
LINE
  5
20E
100
AcDbEntity
  8
1
370
     9
  6
Continuous
 62
     7
100
AcDbLine
 10
324.0
 20
105.5
 30
0.0
 11
324.0
 21
188.5
 31
0.0
  0
LINE
  5
20F
100
AcDbEntity
  8
1
370
     9
  6
Continuous
 62
     7
100
AcDbLine
 10
324.0
 20
188.5
 30
0.0
 11
302.0
 21
188.5
 31
0.0
  0
LINE
  5
210
100
AcDbEntity
  8
1
370
     9
  6
Continuous
 62
     7
100
AcDbLine
 10
302.0
 20
188.5
 30
0.0
 11
302.0
 21
105.5
 31
0.0
  0
LINE
  5
211
100
AcDbEntity
  8
1
370
     9
  6
Continuous
 62
     7
100
AcDbLine
 10
302.0
 20
105.5
 30
0.0
 11
324.0
 21
105.5
 31
0.0
  0
ENDBLK
  5
212
100
AcDbEntity
  8
0
100
AcDbBlockEnd
  0
BLOCK
  5
215
100
AcDbEntity
  8
0
370
     9
  6
Continuous
 62
     7
100
AcDbBlockBegin
  2
*G15
 70
     0
 10
0.0
 20
0.0
 30
0.0
  3
*G15
  1

  0
LINE
  5
216
100
AcDbEntity
  8
1
370
     9
  6
Continuous
 62
     7
100
AcDbLine
 10
331.5
 20
104.7
 30
0.0
 11
331.5
 21
189.3
 31
0.0
  0
LINE
  5
217
100
AcDbEntity
  8
1
370
     9
  6
Continuous
 62
     7
100
AcDbLine
 10
331.5
 20
189.3
 30
0.0
 11
324.6
 21
189.3
 31
0.0
  0
LINE
  5
218
100
AcDbEntity
  8
1
370
     9
  6
Continuous
 62
     7
100
AcDbLine
 10
324.0
 20
188.5
 30
0.0
 11
324.6
 21
189.3
 31
0.0
  0
LINE
  5
219
100
AcDbEntity
  8
1
370
     9
  6
Continuous
 62
     7
100
AcDbLine
 10
324.0
 20
188.5
 30
0.0
 11
324.0
 21
105.5
 31
0.0
  0
LINE
  5
21A
100
AcDbEntity
  8
1
370
     9
  6
Continuous
 62
     7
100
AcDbLine
 10
331.5
 20
104.7
 30
0.0
 11
324.6
 21
104.7
 31
0.0
  0
LINE
  5
21B
100
AcDbEntity
  8
1
370
     9
  6
Continuous
 62
     7
100
AcDbLine
 10
324.0
 20
105.5
 30
0.0
 11
324.6
 21
104.7
 31
0.0
  0
ENDBLK
  5
21C
100
AcDbEntity
  8
0
100
AcDbBlockEnd
  0
BLOCK
  5
21F
100
AcDbEntity
  8
0
370
     9
  6
Continuous
 62
     7
100
AcDbBlockBegin
  2
*G16
 70
     0
 10
0.0
 20
0.0
 30
0.0
  3
*G16
  1

  0
LINE
  5
220
100
AcDbEntity
  8
1
370
     9
  6
Continuous
 62
     7
100
AcDbLine
 10
331.5
 20
187.5
 30
0.0
 11
331.5
 21
106.5
 31
0.0
  0
LINE
  5
221
100
AcDbEntity
  8
1
370
     9
  6
Continuous
 62
     7
100
AcDbLine
 10
331.5
 20
106.5
 30
0.0
 11
343.0
 21
106.5
 31
0.0
  0
LINE
  5
222
100
AcDbEntity
  8
1
370
     9
  6
Continuous
 62
     7
100
AcDbLine
 10
343.0
 20
106.5
 30
0.0
 11
343.0
 21
187.5
 31
0.0
  0
LINE
  5
223
100
AcDbEntity
  8
1
370
     9
  6
Continuous
 62
     7
100
AcDbLine
 10
343.0
 20
187.5
 30
0.0
 11
331.5
 21
187.5
 31
0.0
  0
ENDBLK
  5
224
100
AcDbEntity
  8
0
100
AcDbBlockEnd
  0
BLOCK
  5
227
100
AcDbEntity
  8
0
370
     9
  6
Continuous
 62
     7
100
AcDbBlockBegin
  2
*G17
 70
     0
 10
0.0
 20
0.0
 30
0.0
  3
*G17
  1

  0
LINE
  5
228
100
AcDbEntity
  8
1
370
     9
  6
Continuous
 62
     7
100
AcDbLine
 10
346.0
 20
182.85
 30
0.0
 11
346.0
 21
111.15
 31
0.0
  0
LINE
  5
229
100
AcDbEntity
  8
1
370
     9
  6
Continuous
 62
     7
100
AcDbLine
 10
346.0
 20
111.15
 30
0.0
 11
364.0
 21
111.15
 31
0.0
  0
LINE
  5
22A
100
AcDbEntity
  8
1
370
     9
  6
Continuous
 62
     7
100
AcDbLine
 10
364.0
 20
111.15
 30
0.0
 11
364.0
 21
182.85
 31
0.0
  0
LINE
  5
22B
100
AcDbEntity
  8
1
370
     9
  6
Continuous
 62
     7
100
AcDbLine
 10
364.0
 20
182.85
 30
0.0
 11
346.0
 21
182.85
 31
0.0
  0
ENDBLK
  5
22C
100
AcDbEntity
  8
0
100
AcDbBlockEnd
  0
BLOCK
  5
27D
100
AcDbEntity
  8
2
370
     9
  6
Continuous
 62
   134
100
AcDbBlockBegin
  2
*D18
 70
     0
 10
0.0
 20
0.0
 30
0.0
  3
*D18
  1

  0
LINE
  5
27E
100
AcDbEntity
  8
2
370
     9
  6
Continuous
 62
   134
100
AcDbLine
 10
346.0
 20
85.0
 30
0.0
 11
179.0
 21
85.0
 31
0.0
  0
LINE
  5
27F
100
AcDbEntity
  8
2
370
     9
  6
Continuous
 62
   134
100
AcDbLine
 10
346.0
 20
83.0
 30
0.0
 11
346.0
 21
112.30528
 31
0.0
  0
LINE
  5
280
100
AcDbEntity
  8
2
370
     9
  6
Continuous
 62
   134
100
AcDbLine
 10
179.0
 20
83.0
 30
0.0
 11
179.0
 21
107.5
 31
0.0
  0
LINE
  5
281
100
AcDbEntity
  8
2
370
     9
  6
Continuous
 62
   134
100
AcDbLine
 10
346.0
 20
85.0
 30
0.0
 11
344.068148
 21
84.482362
 31
0.0
  0
LINE
  5
282
100
AcDbEntity
  8
2
370
     9
  6
Continuous
 62
   134
100
AcDbLine
 10
346.0
 20
85.0
 30
0.0
 11
344.068148
 21
85.517638
 31
0.0
  0
LINE
  5
283
100
AcDbEntity
  8
2
370
     9
  6
Continuous
 62
   134
100
AcDbLine
 10
344.068148
 20
84.482362
 30
0.0
 11
344.068148
 21
85.517638
 31
0.0
  0
LINE
  5
284
100
AcDbEntity
  8
2
370
     9
  6
Continuous
 62
   134
100
AcDbLine
 10
345.517037
 20
85.0
 30
0.0
 11
344.551111
 21
84.741181
 31
0.0
  0
LINE
  5
285
100
AcDbEntity
  8
2
370
     9
  6
Continuous
 62
   134
100
AcDbLine
 10
345.517037
 20
85.0
 30
0.0
 11
344.551111
 21
85.258819
 31
0.0
  0
LINE
  5
286
100
AcDbEntity
  8
2
370
     9
  6
Continuous
 62
   134
100
AcDbLine
 10
344.551111
 20
84.741181
 30
0.0
 11
344.551111
 21
85.258819
 31
0.0
  0
LINE
  5
287
100
AcDbEntity
  8
2
370
     9
  6
Continuous
 62
   134
100
AcDbLine
 10
179.0
 20
85.0
 30
0.0
 11
180.931852
 21
85.517638
 31
0.0
  0
LINE
  5
288
100
AcDbEntity
  8
2
370
     9
  6
Continuous
 62
   134
100
AcDbLine
 10
179.0
 20
85.0
 30
0.0
 11
180.931852
 21
84.482362
 31
0.0
  0
LINE
  5
289
100
AcDbEntity
  8
2
370
     9
  6
Continuous
 62
   134
100
AcDbLine
 10
180.931852
 20
85.517638
 30
0.0
 11
180.931852
 21
84.482362
 31
0.0
  0
LINE
  5
28A
100
AcDbEntity
  8
2
370
     9
  6
Continuous
 62
   134
100
AcDbLine
 10
179.482963
 20
85.0
 30
0.0
 11
180.448889
 21
85.258819
 31
0.0
  0
LINE
  5
28B
100
AcDbEntity
  8
2
370
     9
  6
Continuous
 62
   134
100
AcDbLine
 10
179.482963
 20
85.0
 30
0.0
 11
180.448889
 21
84.741181
 31
0.0
  0
LINE
  5
28C
100
AcDbEntity
  8
2
370
     9
  6
Continuous
 62
   134
100
AcDbLine
 10
180.448889
 20
85.258819
 30
0.0
 11
180.448889
 21
84.741181
 31
0.0
  0
TEXT
  5
28D
100
AcDbEntity
  8
2
370
     9
  6
Continuous
 62
   134
100
AcDbText
 10
259.5
 20
85.0
 30
0.0
 40
4.0
  1
167
 41
0.5
 11
259.5
 21
85.0
 31
0.0
100
AcDbText
 73
     1
  0
ENDBLK
  5
28E
100
AcDbEntity
  8
2
370
     9
  6
Continuous
 62
   134
100
AcDbBlockEnd
  0
BLOCK
  5
291
100
AcDbEntity
  8
2
370
     9
  6
Continuous
 62
   134
100
AcDbBlockBegin
  2
*D19
 70
     0
 10
0.0
 20
0.0
 30
0.0
  3
*D19
  1

  0
LINE
  5
292
100
AcDbEntity
  8
2
370
     9
  6
Continuous
 62
   134
100
AcDbLine
 10
368.0
 20
85.0
 30
0.0
 11
346.0
 21
85.0
 31
0.0
  0
LINE
  5
293
100
AcDbEntity
  8
2
370
     9
  6
Continuous
 62
   134
100
AcDbLine
 10
368.0
 20
83.0
 30
0.0
 11
368.0
 21
128.0
 31
0.0
  0
LINE
  5
294
100
AcDbEntity
  8
2
370
     9
  6
Continuous
 62
   134
100
AcDbLine
 10
346.0
 20
83.0
 30
0.0
 11
346.0
 21
117.0
 31
0.0
  0
LINE
  5
295
100
AcDbEntity
  8
2
370
     9
  6
Continuous
 62
   134
100
AcDbLine
 10
368.0
 20
85.0
 30
0.0
 11
366.068148
 21
84.482362
 31
0.0
  0
LINE
  5
296
100
AcDbEntity
  8
2
370
     9
  6
Continuous
 62
   134
100
AcDbLine
 10
368.0
 20
85.0
 30
0.0
 11
366.068148
 21
85.517638
 31
0.0
  0
LINE
  5
297
100
AcDbEntity
  8
2
370
     9
  6
Continuous
 62
   134
100
AcDbLine
 10
366.068148
 20
84.482362
 30
0.0
 11
366.068148
 21
85.517638
 31
0.0
  0
LINE
  5
298
100
AcDbEntity
  8
2
370
     9
  6
Continuous
 62
   134
100
AcDbLine
 10
367.517037
 20
85.0
 30
0.0
 11
366.551111
 21
84.741181
 31
0.0
  0
LINE
  5
299
100
AcDbEntity
  8
2
370
     9
  6
Continuous
 62
   134
100
AcDbLine
 10
367.517037
 20
85.0
 30
0.0
 11
366.551111
 21
85.258819
 31
0.0
  0
LINE
  5
29A
100
AcDbEntity
  8
2
370
     9
  6
Continuous
 62
   134
100
AcDbLine
 10
366.551111
 20
84.741181
 30
0.0
 11
366.551111
 21
85.258819
 31
0.0
  0
LINE
  5
29B
100
AcDbEntity
  8
2
370
     9
  6
Continuous
 62
   134
100
AcDbLine
 10
346.0
 20
85.0
 30
0.0
 11
347.931852
 21
85.517638
 31
0.0
  0
LINE
  5
29C
100
AcDbEntity
  8
2
370
     9
  6
Continuous
 62
   134
100
AcDbLine
 10
346.0
 20
85.0
 30
0.0
 11
347.931852
 21
84.482362
 31
0.0
  0
LINE
  5
29D
100
AcDbEntity
  8
2
370
     9
  6
Continuous
 62
   134
100
AcDbLine
 10
347.931852
 20
85.517638
 30
0.0
 11
347.931852
 21
84.482362
 31
0.0
  0
LINE
  5
29E
100
AcDbEntity
  8
2
370
     9
  6
Continuous
 62
   134
100
AcDbLine
 10
346.482963
 20
85.0
 30
0.0
 11
347.448889
 21
85.258819
 31
0.0
  0
LINE
  5
29F
100
AcDbEntity
  8
2
370
     9
  6
Continuous
 62
   134
100
AcDbLine
 10
346.482963
 20
85.0
 30
0.0
 11
347.448889
 21
84.741181
 31
0.0
  0
LINE
  5
2A0
100
AcDbEntity
  8
2
370
     9
  6
Continuous
 62
   134
100
AcDbLine
 10
347.448889
 20
85.258819
 30
0.0
 11
347.448889
 21
84.741181
 31
0.0
  0
TEXT
  5
2A1
100
AcDbEntity
  8
2
370
     9
  6
Continuous
 62
   134
100
AcDbText
 10
355.0
 20
85.0
 30
0.0
 40
4.0
  1
22
 41
0.5
 11
355.0
 21
85.0
 31
0.0
100
AcDbText
 73
     1
  0
ENDBLK
  5
2A2
100
AcDbEntity
  8
2
370
     9
  6
Continuous
 62
   134
100
AcDbBlockEnd
  0
BLOCK
  5
2A5
100
AcDbEntity
  8
2
370
     9
  6
Continuous
 62
   134
100
AcDbBlockBegin
  2
*D20
 70
     0
 10
0.0
 20
0.0
 30
0.0
  3
*D20
  1

  0
LINE
  5
2A6
100
AcDbEntity
  8
2
370
     9
  6
Continuous
 62
   134
100
AcDbLine
 10
368.0
 20
74.846125
 30
0.0
 11
179.0
 21
74.846125
 31
0.0
  0
LINE
  5
2A7
100
AcDbEntity
  8
2
370
     9
  6
Continuous
 62
   134
100
AcDbLine
 10
368.0
 20
72.846125
 30
0.0
 11
368.0
 21
111.168006
 31
0.0
  0
LINE
  5
2A8
100
AcDbEntity
  8
2
370
     9
  6
Continuous
 62
   134
100
AcDbLine
 10
179.0
 20
72.846125
 30
0.0
 11
179.0
 21
97.0
 31
0.0
  0
LINE
  5
2A9
100
AcDbEntity
  8
2
370
     9
  6
Continuous
 62
   134
100
AcDbLine
 10
368.0
 20
74.846125
 30
0.0
 11
366.068148
 21
74.328487
 31
0.0
  0
LINE
  5
2AA
100
AcDbEntity
  8
2
370
     9
  6
Continuous
 62
   134
100
AcDbLine
 10
368.0
 20
74.846125
 30
0.0
 11
366.068148
 21
75.363763
 31
0.0
  0
LINE
  5
2AB
100
AcDbEntity
  8
2
370
     9
  6
Continuous
 62
   134
100
AcDbLine
 10
366.068148
 20
74.328487
 30
0.0
 11
366.068148
 21
75.363763
 31
0.0
  0
LINE
  5
2AC
100
AcDbEntity
  8
2
370
     9
  6
Continuous
 62
   134
100
AcDbLine
 10
367.517037
 20
74.846125
 30
0.0
 11
366.551111
 21
74.587306
 31
0.0
  0
LINE
  5
2AD
100
AcDbEntity
  8
2
370
     9
  6
Continuous
 62
   134
100
AcDbLine
 10
367.517037
 20
74.846125
 30
0.0
 11
366.551111
 21
75.104944
 31
0.0
  0
LINE
  5
2AE
100
AcDbEntity
  8
2
370
     9
  6
Continuous
 62
   134
100
AcDbLine
 10
366.551111
 20
74.587306
 30
0.0
 11
366.551111
 21
75.104944
 31
0.0
  0
LINE
  5
2AF
100
AcDbEntity
  8
2
370
     9
  6
Continuous
 62
   134
100
AcDbLine
 10
179.0
 20
74.846125
 30
0.0
 11
180.931852
 21
75.363763
 31
0.0
  0
LINE
  5
2B0
100
AcDbEntity
  8
2
370
     9
  6
Continuous
 62
   134
100
AcDbLine
 10
179.0
 20
74.846125
 30
0.0
 11
180.931852
 21
74.328487
 31
0.0
  0
LINE
  5
2B1
100
AcDbEntity
  8
2
370
     9
  6
Continuous
 62
   134
100
AcDbLine
 10
180.931852
 20
75.363763
 30
0.0
 11
180.931852
 21
74.328487
 31
0.0
  0
LINE
  5
2B2
100
AcDbEntity
  8
2
370
     9
  6
Continuous
 62
   134
100
AcDbLine
 10
179.482963
 20
74.846125
 30
0.0
 11
180.448889
 21
75.104944
 31
0.0
  0
LINE
  5
2B3
100
AcDbEntity
  8
2
370
     9
  6
Continuous
 62
   134
100
AcDbLine
 10
179.482963
 20
74.846125
 30
0.0
 11
180.448889
 21
74.587306
 31
0.0
  0
LINE
  5
2B4
100
AcDbEntity
  8
2
370
     9
  6
Continuous
 62
   134
100
AcDbLine
 10
180.448889
 20
75.104944
 30
0.0
 11
180.448889
 21
74.587306
 31
0.0
  0
TEXT
  5
2B5
100
AcDbEntity
  8
2
370
     9
  6
Continuous
 62
   134
100
AcDbText
 10
270.5
 20
74.846125
 30
0.0
 40
4.0
  1
189
 41
0.5
 11
270.5
 21
74.846125
 31
0.0
100
AcDbText
 73
     1
  0
ENDBLK
  5
2B6
100
AcDbEntity
  8
2
370
     9
  6
Continuous
 62
   134
100
AcDbBlockEnd
  0
BLOCK
  5
2B9
100
AcDbEntity
  8
2
370
     9
  6
Continuous
 62
   134
100
AcDbBlockBegin
  2
*D21
 70
     0
 10
0.0
 20
0.0
 30
0.0
  3
*D21
  1

  0
LINE
  5
2BA
100
AcDbEntity
  8
2
370
     9
  6
Continuous
 62
   134
100
AcDbLine
 10
170.5
 20
198.5
 30
0.0
 11
170.5
 21
95.5
 31
0.0
  0
LINE
  5
2BB
100
AcDbEntity
  8
2
370
     9
  6
Continuous
 62
   134
100
AcDbLine
 10
168.5
 20
198.5
 30
0.0
 11
179.100105
 21
198.5
 31
0.0
  0
LINE
  5
2BC
100
AcDbEntity
  8
2
370
     9
  6
Continuous
 62
   134
100
AcDbLine
 10
168.5
 20
95.5
 30
0.0
 11
179.0
 21
95.5
 31
0.0
  0
LINE
  5
2BD
100
AcDbEntity
  8
2
370
     9
  6
Continuous
 62
   134
100
AcDbLine
 10
170.5
 20
198.5
 30
0.0
 11
171.017638
 21
196.568148
 31
0.0
  0
LINE
  5
2BE
100
AcDbEntity
  8
2
370
     9
  6
Continuous
 62
   134
100
AcDbLine
 10
170.5
 20
198.5
 30
0.0
 11
169.982362
 21
196.568148
 31
0.0
  0
LINE
  5
2BF
100
AcDbEntity
  8
2
370
     9
  6
Continuous
 62
   134
100
AcDbLine
 10
171.017638
 20
196.568148
 30
0.0
 11
169.982362
 21
196.568148
 31
0.0
  0
LINE
  5
2C0
100
AcDbEntity
  8
2
370
     9
  6
Continuous
 62
   134
100
AcDbLine
 10
170.5
 20
198.017037
 30
0.0
 11
170.758819
 21
197.051111
 31
0.0
  0
LINE
  5
2C1
100
AcDbEntity
  8
2
370
     9
  6
Continuous
 62
   134
100
AcDbLine
 10
170.5
 20
198.017037
 30
0.0
 11
170.241181
 21
197.051111
 31
0.0
  0
LINE
  5
2C2
100
AcDbEntity
  8
2
370
     9
  6
Continuous
 62
   134
100
AcDbLine
 10
170.758819
 20
197.051111
 30
0.0
 11
170.241181
 21
197.051111
 31
0.0
  0
LINE
  5
2C3
100
AcDbEntity
  8
2
370
     9
  6
Continuous
 62
   134
100
AcDbLine
 10
170.5
 20
95.5
 30
0.0
 11
169.982362
 21
97.431852
 31
0.0
  0
LINE
  5
2C4
100
AcDbEntity
  8
2
370
     9
  6
Continuous
 62
   134
100
AcDbLine
 10
170.5
 20
95.5
 30
0.0
 11
171.017638
 21
97.431852
 31
0.0
  0
LINE
  5
2C5
100
AcDbEntity
  8
2
370
     9
  6
Continuous
 62
   134
100
AcDbLine
 10
169.982362
 20
97.431852
 30
0.0
 11
171.017638
 21
97.431852
 31
0.0
  0
LINE
  5
2C6
100
AcDbEntity
  8
2
370
     9
  6
Continuous
 62
   134
100
AcDbLine
 10
170.5
 20
95.982963
 30
0.0
 11
170.241181
 21
96.948889
 31
0.0
  0
LINE
  5
2C7
100
AcDbEntity
  8
2
370
     9
  6
Continuous
 62
   134
100
AcDbLine
 10
170.5
 20
95.982963
 30
0.0
 11
170.758819
 21
96.948889
 31
0.0
  0
LINE
  5
2C8
100
AcDbEntity
  8
2
370
     9
  6
Continuous
 62
   134
100
AcDbLine
 10
170.241181
 20
96.948889
 30
0.0
 11
170.758819
 21
96.948889
 31
0.0
  0
TEXT
  5
2C9
100
AcDbEntity
  8
2
370
     9
  6
Continuous
 62
   134
100
AcDbText
 10
170.5
 20
142.0
 30
0.0
 40
4.0
  1
φ103
 50
90.0
 41
0.625
 11
170.5
 21
142.0
 31
0.0
100
AcDbText
 73
     1
  0
ENDBLK
  5
2CA
100
AcDbEntity
  8
2
370
     9
  6
Continuous
 62
   134
100
AcDbBlockEnd
  0
BLOCK
  5
2CD
100
AcDbEntity
  8
2
370
     9
  6
Continuous
 62
   134
100
AcDbBlockBegin
  2
*D22
 70
     0
 10
0.0
 20
0.0
 30
0.0
  3
*D22
  1

  0
LINE
  5
2CE
100
AcDbEntity
  8
2
370
     9
  6
Continuous
 62
   134
100
AcDbLine
 10
197.752526
 20
195.0
 30
0.0
 11
197.752526
 21
99.0
 31
0.0
  0
LINE
  5
2CF
100
AcDbEntity
  8
2
370
     9
  6
Continuous
 62
   134
100
AcDbLine
 10
195.752526
 20
195.0
 30
0.0
 11
196.174849
 21
195.0
 31
0.0
  0
LINE
  5
2D0
100
AcDbEntity
  8
2
370
     9
  6
Continuous
 62
   134
100
AcDbLine
 10
197.752526
 20
195.0
 30
0.0
 11
198.270164
 21
193.068148
 31
0.0
  0
LINE
  5
2D1
100
AcDbEntity
  8
2
370
     9
  6
Continuous
 62
   134
100
AcDbLine
 10
197.752526
 20
195.0
 30
0.0
 11
197.234888
 21
193.068148
 31
0.0
  0
LINE
  5
2D2
100
AcDbEntity
  8
2
370
     9
  6
Continuous
 62
   134
100
AcDbLine
 10
198.270164
 20
193.068148
 30
0.0
 11
197.234888
 21
193.068148
 31
0.0
  0
LINE
  5
2D3
100
AcDbEntity
  8
2
370
     9
  6
Continuous
 62
   134
100
AcDbLine
 10
197.752526
 20
194.517037
 30
0.0
 11
198.011345
 21
193.551111
 31
0.0
  0
LINE
  5
2D4
100
AcDbEntity
  8
2
370
     9
  6
Continuous
 62
   134
100
AcDbLine
 10
197.752526
 20
194.517037
 30
0.0
 11
197.493707
 21
193.551111
 31
0.0
  0
LINE
  5
2D5
100
AcDbEntity
  8
2
370
     9
  6
Continuous
 62
   134
100
AcDbLine
 10
198.011345
 20
193.551111
 30
0.0
 11
197.493707
 21
193.551111
 31
0.0
  0
LINE
  5
2D6
100
AcDbEntity
  8
2
370
     9
  6
Continuous
 62
   134
100
AcDbLine
 10
197.752526
 20
99.0
 30
0.0
 11
197.234888
 21
100.931852
 31
0.0
  0
LINE
  5
2D7
100
AcDbEntity
  8
2
370
     9
  6
Continuous
 62
   134
100
AcDbLine
 10
197.752526
 20
99.0
 30
0.0
 11
198.270164
 21
100.931852
 31
0.0
  0
LINE
  5
2D8
100
AcDbEntity
  8
2
370
     9
  6
Continuous
 62
   134
100
AcDbLine
 10
197.234888
 20
100.931852
 30
0.0
 11
198.270164
 21
100.931852
 31
0.0
  0
LINE
  5
2D9
100
AcDbEntity
  8
2
370
     9
  6
Continuous
 62
   134
100
AcDbLine
 10
197.752526
 20
99.482963
 30
0.0
 11
197.493707
 21
100.448889
 31
0.0
  0
LINE
  5
2DA
100
AcDbEntity
  8
2
370
     9
  6
Continuous
 62
   134
100
AcDbLine
 10
197.752526
 20
99.482963
 30
0.0
 11
198.011345
 21
100.448889
 31
0.0
  0
LINE
  5
2DB
100
AcDbEntity
  8
2
370
     9
  6
Continuous
 62
   134
100
AcDbLine
 10
197.493707
 20
100.448889
 30
0.0
 11
198.011345
 21
100.448889
 31
0.0
  0
TEXT
  5
2DC
100
AcDbEntity
  8
2
370
     9
  6
Continuous
 62
   134
100
AcDbText
 10
197.752526
 20
143.0
 30
0.0
 40
4.0
  1
φ96
 50
90.0
 41
0.666667
 11
197.752526
 21
143.0
 31
0.0
100
AcDbText
 73
     1
  0
ENDBLK
  5
2DD
100
AcDbEntity
  8
2
370
     9
  6
Continuous
 62
   134
100
AcDbBlockEnd
  0
BLOCK
  5
2E0
100
AcDbEntity
  8
2
370
     9
  6
Continuous
 62
   134
100
AcDbBlockBegin
  2
*D23
 70
     0
 10
0.0
 20
0.0
 30
0.0
  3
*D23
  1

  0
LINE
  5
2E1
100
AcDbEntity
  8
2
370
     9
  6
Continuous
 62
   134
100
AcDbLine
 10
215.0
 20
194.5
 30
0.0
 11
215.0
 21
99.5
 31
0.0
  0
LINE
  5
2E2
100
AcDbEntity
  8
2
370
     9
  6
Continuous
 62
   134
100
AcDbLine
 10
213.0
 20
194.5
 30
0.0
 11
216.5
 21
194.5
 31
0.0
  0
LINE
  5
2E3
100
AcDbEntity
  8
2
370
     9
  6
Continuous
 62
   134
100
AcDbLine
 10
215.0
 20
194.5
 30
0.0
 11
215.517638
 21
192.568148
 31
0.0
  0
LINE
  5
2E4
100
AcDbEntity
  8
2
370
     9
  6
Continuous
 62
   134
100
AcDbLine
 10
215.0
 20
194.5
 30
0.0
 11
214.482362
 21
192.568148
 31
0.0
  0
LINE
  5
2E5
100
AcDbEntity
  8
2
370
     9
  6
Continuous
 62
   134
100
AcDbLine
 10
215.517638
 20
192.568148
 30
0.0
 11
214.482362
 21
192.568148
 31
0.0
  0
LINE
  5
2E6
100
AcDbEntity
  8
2
370
     9
  6
Continuous
 62
   134
100
AcDbLine
 10
215.0
 20
194.017037
 30
0.0
 11
215.258819
 21
193.051111
 31
0.0
  0
LINE
  5
2E7
100
AcDbEntity
  8
2
370
     9
  6
Continuous
 62
   134
100
AcDbLine
 10
215.0
 20
194.017037
 30
0.0
 11
214.741181
 21
193.051111
 31
0.0
  0
LINE
  5
2E8
100
AcDbEntity
  8
2
370
     9
  6
Continuous
 62
   134
100
AcDbLine
 10
215.258819
 20
193.051111
 30
0.0
 11
214.741181
 21
193.051111
 31
0.0
  0
LINE
  5
2E9
100
AcDbEntity
  8
2
370
     9
  6
Continuous
 62
   134
100
AcDbLine
 10
215.0
 20
99.5
 30
0.0
 11
214.482362
 21
101.431852
 31
0.0
  0
LINE
  5
2EA
100
AcDbEntity
  8
2
370
     9
  6
Continuous
 62
   134
100
AcDbLine
 10
215.0
 20
99.5
 30
0.0
 11
215.517638
 21
101.431852
 31
0.0
  0
LINE
  5
2EB
100
AcDbEntity
  8
2
370
     9
  6
Continuous
 62
   134
100
AcDbLine
 10
214.482362
 20
101.431852
 30
0.0
 11
215.517638
 21
101.431852
 31
0.0
  0
LINE
  5
2EC
100
AcDbEntity
  8
2
370
     9
  6
Continuous
 62
   134
100
AcDbLine
 10
215.0
 20
99.982963
 30
0.0
 11
214.741181
 21
100.948889
 31
0.0
  0
LINE
  5
2ED
100
AcDbEntity
  8
2
370
     9
  6
Continuous
 62
   134
100
AcDbLine
 10
215.0
 20
99.982963
 30
0.0
 11
215.258819
 21
100.948889
 31
0.0
  0
LINE
  5
2EE
100
AcDbEntity
  8
2
370
     9
  6
Continuous
 62
   134
100
AcDbLine
 10
214.741181
 20
100.948889
 30
0.0
 11
215.258819
 21
100.948889
 31
0.0
  0
TEXT
  5
2EF
100
AcDbEntity
  8
2
370
     9
  6
Continuous
 62
   134
100
AcDbText
 10
215.0
 20
143.0
 30
0.0
 40
4.0
  1
φ95
 50
90.0
 41
0.666667
 11
215.0
 21
143.0
 31
0.0
100
AcDbText
 73
     1
  0
ENDBLK
  5
2F0
100
AcDbEntity
  8
2
370
     9
  6
Continuous
 62
   134
100
AcDbBlockEnd
  0
BLOCK
  5
2F3
100
AcDbEntity
  8
2
370
     9
  6
Continuous
 62
   134
100
AcDbBlockBegin
  2
*D24
 70
     0
 10
0.0
 20
0.0
 30
0.0
  3
*D24
  1

  0
LINE
  5
2F4
100
AcDbEntity
  8
2
370
     9
  6
Continuous
 62
   134
100
AcDbLine
 10
384.776994
 20
187.5
 30
0.0
 11
384.776994
 21
106.5
 31
0.0
  0
LINE
  5
2F5
100
AcDbEntity
  8
2
370
     9
  6
Continuous
 62
   134
100
AcDbLine
 10
386.776994
 20
187.5
 30
0.0
 11
346.568347
 21
187.5
 31
0.0
  0
LINE
  5
2F6
100
AcDbEntity
  8
2
370
     9
  6
Continuous
 62
   134
100
AcDbLine
 10
386.776994
 20
106.5
 30
0.0
 11
346.709121
 21
106.5
 31
0.0
  0
LINE
  5
2F7
100
AcDbEntity
  8
2
370
     9
  6
Continuous
 62
   134
100
AcDbLine
 10
384.776994
 20
187.5
 30
0.0
 11
385.294632
 21
185.568148
 31
0.0
  0
LINE
  5
2F8
100
AcDbEntity
  8
2
370
     9
  6
Continuous
 62
   134
100
AcDbLine
 10
384.776994
 20
187.5
 30
0.0
 11
384.259356
 21
185.568148
 31
0.0
  0
LINE
  5
2F9
100
AcDbEntity
  8
2
370
     9
  6
Continuous
 62
   134
100
AcDbLine
 10
385.294632
 20
185.568148
 30
0.0
 11
384.259356
 21
185.568148
 31
0.0
  0
LINE
  5
2FA
100
AcDbEntity
  8
2
370
     9
  6
Continuous
 62
   134
100
AcDbLine
 10
384.776994
 20
187.017037
 30
0.0
 11
385.035813
 21
186.051111
 31
0.0
  0
LINE
  5
2FB
100
AcDbEntity
  8
2
370
     9
  6
Continuous
 62
   134
100
AcDbLine
 10
384.776994
 20
187.017037
 30
0.0
 11
384.518175
 21
186.051111
 31
0.0
  0
LINE
  5
2FC
100
AcDbEntity
  8
2
370
     9
  6
Continuous
 62
   134
100
AcDbLine
 10
385.035813
 20
186.051111
 30
0.0
 11
384.518175
 21
186.051111
 31
0.0
  0
LINE
  5
2FD
100
AcDbEntity
  8
2
370
     9
  6
Continuous
 62
   134
100
AcDbLine
 10
384.776994
 20
106.5
 30
0.0
 11
384.259356
 21
108.431852
 31
0.0
  0
LINE
  5
2FE
100
AcDbEntity
  8
2
370
     9
  6
Continuous
 62
   134
100
AcDbLine
 10
384.776994
 20
106.5
 30
0.0
 11
385.294632
 21
108.431852
 31
0.0
  0
LINE
  5
2FF
100
AcDbEntity
  8
2
370
     9
  6
Continuous
 62
   134
100
AcDbLine
 10
384.259356
 20
108.431852
 30
0.0
 11
385.294632
 21
108.431852
 31
0.0
  0
LINE
  5
300
100
AcDbEntity
  8
2
370
     9
  6
Continuous
 62
   134
100
AcDbLine
 10
384.776994
 20
106.982963
 30
0.0
 11
384.518175
 21
107.948889
 31
0.0
  0
LINE
  5
301
100
AcDbEntity
  8
2
370
     9
  6
Continuous
 62
   134
100
AcDbLine
 10
384.776994
 20
106.982963
 30
0.0
 11
385.035813
 21
107.948889
 31
0.0
  0
LINE
  5
302
100
AcDbEntity
  8
2
370
     9
  6
Continuous
 62
   134
100
AcDbLine
 10
384.518175
 20
107.948889
 30
0.0
 11
385.035813
 21
107.948889
 31
0.0
  0
TEXT
  5
303
100
AcDbEntity
  8
2
370
     9
  6
Continuous
 62
   134
100
AcDbText
 10
384.776994
 20
145.0
 30
0.0
 40
4.0
  1
81
 50
90.0
 41
0.5
 11
384.776994
 21
145.0
 31
0.0
100
AcDbText
 73
     1
  0
ENDBLK
  5
304
100
AcDbEntity
  8
2
370
     9
  6
Continuous
 62
   134
100
AcDbBlockEnd
  0
BLOCK
  5
30C
100
AcDbEntity
  8
1
370
     9
  6
Continuous
 62
     7
100
AcDbBlockBegin
  2
*G25
 70
     0
 10
0.0
 20
0.0
 30
0.0
  3
*G25
  1

  0
ARC
  5
30D
100
AcDbEntity
  8
1
370
     9
  6
Continuous
 62
     7
100
AcDbCircle
 10
42.723321
 20
182.5
 30
0.0
 40
5.0
100
AcDbArc
 50
90.0
 51
180.0
  0
ARC
  5
30E
100
AcDbEntity
  8
1
370
     9
  6
Continuous
 62
     7
100
AcDbCircle
 10
139.723321
 20
182.5
 30
0.0
 40
5.0
100
AcDbArc
 50
0.0
 51
90.0
  0
LINE
  5
30F
100
AcDbEntity
  8
1
370
     9
  6
Continuous
 62
     7
100
AcDbLine
 10
144.723321
 20
111.5
 30
0.0
 11
144.723321
 21
182.5
 31
0.0
  0
ARC
  5
310
100
AcDbEntity
  8
1
370
     9
  6
Continuous
 62
     7
100
AcDbCircle
 10
139.723321
 20
111.5
 30
0.0
 40
5.0
100
AcDbArc
 50
-90.0
 51
0.0
  0
LINE
  5
311
100
AcDbEntity
  8
1
370
     9
  6
Continuous
 62
     7
100
AcDbLine
 10
37.723321
 20
182.5
 30
0.0
 11
37.723321
 21
111.5
 31
0.0
  0
ARC
  5
312
100
AcDbEntity
  8
1
370
     9
  6
Continuous
 62
     7
100
AcDbCircle
 10
42.723321
 20
111.5
 30
0.0
 40
5.0
100
AcDbArc
 50
180.0
 51
-90.0
  0
LINE
  5
313
100
AcDbEntity
  8
1
370
     9
  6
Continuous
 62
     7
100
AcDbLine
 10
42.723321
 20
106.5
 30
0.0
 11
59.411373
 21
106.5
 31
0.0
  0
LINE
  5
314
100
AcDbEntity
  8
1
370
     9
  6
Continuous
 62
     7
100
AcDbLine
 10
123.035268
 20
106.5
 30
0.0
 11
139.723321
 21
106.5
 31
0.0
  0
LINE
  5
315
100
AcDbEntity
  8
1
370
     9
  6
Continuous
 62
     7
100
AcDbLine
 10
139.723321
 20
187.5
 30
0.0
 11
123.035268
 21
187.5
 31
0.0
  0
LINE
  5
316
100
AcDbEntity
  8
1
370
     9
  6
Continuous
 62
     7
100
AcDbLine
 10
59.411373
 20
187.5
 30
0.0
 11
42.723321
 21
187.5
 31
0.0
  0
ENDBLK
  5
317
100
AcDbEntity
  8
0
100
AcDbBlockEnd
  0
BLOCK
  5
32A
100
AcDbEntity
  8
0
370
     9
  6
Continuous
 62
     7
100
AcDbBlockBegin
  2
*G26
 70
     0
 10
0.0
 20
0.0
 30
0.0
  3
*G26
  1

  0
TEXT
  5
32B
100
AcDbEntity
  8
2
370
     9
  6
Continuous
 62
   134
100
AcDbText
 10
345.5
 20
2.5
 30
0.0
 40
4.0
  1
LNS-S31
 41
0.5
 11
345.5
 21
2.5
 31
0.0
100
AcDbText
 73
     1
  0
ENDBLK
  5
32C
100
AcDbEntity
  8
0
100
AcDbBlockEnd
  0
BLOCK
  5
32F
100
AcDbEntity
  8
0
370
     9
  6
Continuous
 62
     7
100
AcDbBlockBegin
  2
*G27
 70
     0
 10
0.0
 20
0.0
 30
0.0
  3
*G27
  1

  0
TEXT
  5
330
100
AcDbEntity
  8
2
370
     9
  6
Continuous
 62
   134
100
AcDbText
 10
320.5
 20
3.0
 30
0.0
 40
4.0
  1
1350g
 41
0.5
 11
320.5
 21
3.0
 31
0.0
100
AcDbText
 73
     1
  0
ENDBLK
  5
331
100
AcDbEntity
  8
0
100
AcDbBlockEnd
  0
BLOCK
  5
334
100
AcDbEntity
  8
0
370
     9
  6
Continuous
 62
     7
100
AcDbBlockBegin
  2
*G28
 70
     0
 10
0.0
 20
0.0
 30
0.0
  3
*G28
  1

  0
TEXT
  5
335
100
AcDbEntity
  8
2
370
     9
  6
Continuous
 62
   134
100
AcDbText
 10
377.5
 20
2.5
 30
0.0
 40
4.0
  1
AH-23081
 41
0.5
 11
377.5
 21
2.5
 31
0.0
100
AcDbText
 73
     1
  0
ENDBLK
  5
336
100
AcDbEntity
  8
0
100
AcDbBlockEnd
  0
BLOCK
  5
339
100
AcDbEntity
  8
0
370
     9
  6
Continuous
 62
     7
100
AcDbBlockBegin
  2
*G29
 70
     0
 10
0.0
 20
0.0
 30
0.0
  3
*G29
  1

  0
TEXT
  5
33A
100
AcDbEntity
  8
2
370
     9
  6
Continuous
 62
   134
100
AcDbText
 10
228.405741
 20
21.153439
 30
0.0
 40
4.0
  1
ｆ　48.4～62.8ｍｍ
 41
0.692308
 11
228.405741
 21
21.153439
 31
0.0
100
AcDbText
 73
     1
  0
TEXT
  5
33B
100
AcDbEntity
  8
2
370
     9
  6
Continuous
 62
   134
100
AcDbText
 10
228.405741
 20
37.153439
 30
0.0
 40
4.0
  1
レンズ　　ＬＮＳ－Ｓ31
 41
0.916667
 11
228.405741
 21
37.153439
 31
0.0
100
AcDbText
 73
     1
  0
TEXT
  5
33C
100
AcDbEntity
  8
2
370
     9
  6
Continuous
 62
   134
100
AcDbText
 10
228.405741
 20
29.153439
 30
0.0
 40
4.0
  1
Ｆ　1.7～2.0
 41
0.666667
 11
228.405741
 21
29.153439
 31
0.0
100
AcDbText
 73
     1
  0
ENDBLK
  5
33D
100
AcDbEntity
  8
0
100
AcDbBlockEnd
  0
BLOCK
  5
340
100
AcDbEntity
  8
0
370
     9
  6
Continuous
 62
     7
100
AcDbBlockBegin
  2
*G30
 70
     0
 10
0.0
 20
0.0
 30
0.0
  3
*G30
  1

  0
TEXT
  5
341
100
AcDbEntity
  8
2
370
     9
  6
Continuous
 62
   134
100
AcDbText
 10
313.5
 20
30.0
 30
0.0
 40
4.0
  1
LC-X80標準レンズ
 41
0.727273
 11
313.5
 21
30.0
 31
0.0
100
AcDbText
 73
     1
  0
ENDBLK
  5
342
100
AcDbEntity
  8
0
100
AcDbBlockEnd
  0
BLOCK
  5
345
100
AcDbEntity
  8
0
370
     9
  6
Continuous
 62
     7
100
AcDbBlockBegin
  2
*G31
 70
     0
 10
0.0
 20
0.0
 30
0.0
  3
*G31
  1

  0
LINE
  5
346
100
AcDbEntity
  8
2
370
     9
  6
Continuous
 62
   134
100
AcDbLine
 10
289.73901
 20
21.036792
 30
0.0
 11
289.73901
 21
18.204148
 31
0.0
  0
LINE
  5
347
100
AcDbEntity
  8
2
370
     9
  6
Continuous
 62
   134
100
AcDbLine
 10
289.73901
 20
18.204148
 30
0.0
 11
291.296223
 21
18.204148
 31
0.0
  0
LINE
  5
348
100
AcDbEntity
  8
2
370
     9
  6
Continuous
 62
   134
100
AcDbLine
 10
291.296223
 20
18.204148
 30
0.0
 11
291.296223
 21
21.036792
 31
0.0
  0
LINE
  5
349
100
AcDbEntity
  8
2
370
     9
  6
Continuous
 62
   134
100
AcDbLine
 10
291.296223
 20
21.036792
 30
0.0
 11
289.73901
 21
21.036792
 31
0.0
  0
ENDBLK
  5
34A
100
AcDbEntity
  8
0
100
AcDbBlockEnd
  0
BLOCK
  5
34D
100
AcDbEntity
  8
0
370
     9
  6
Continuous
 62
     7
100
AcDbBlockBegin
  2
*G32
 70
     0
 10
0.0
 20
0.0
 30
0.0
  3
*G32
  1

  0
LINE
  5
34E
100
AcDbEntity
  8
2
370
     9
  6
Continuous
 62
   134
100
AcDbLine
 10
290.688169
 20
18.797371
 30
0.0
 11
290.688169
 21
19.286781
 31
0.0
  0
LINE
  5
34F
100
AcDbEntity
  8
2
370
     9
  6
Continuous
 62
   134
100
AcDbLine
 10
290.688169
 20
19.286781
 30
0.0
 11
290.361896
 21
19.286781
 31
0.0
  0
LINE
  5
350
100
AcDbEntity
  8
2
370
     9
  6
Continuous
 62
   134
100
AcDbLine
 10
290.361896
 20
19.286781
 30
0.0
 11
290.361896
 21
18.797371
 31
0.0
  0
LINE
  5
351
100
AcDbEntity
  8
2
370
     9
  6
Continuous
 62
   134
100
AcDbLine
 10
290.361896
 20
18.797371
 30
0.0
 11
290.688169
 21
18.797371
 31
0.0
  0
ENDBLK
  5
352
100
AcDbEntity
  8
0
100
AcDbBlockEnd
  0
BLOCK
  5
355
100
AcDbEntity
  8
0
370
     9
  6
Continuous
 62
     7
100
AcDbBlockBegin
  2
*G33
 70
     0
 10
0.0
 20
0.0
 30
0.0
  3
*G33
  1

  0
LINE
  5
356
100
AcDbEntity
  8
2
370
     9
  6
Continuous
 62
   134
100
AcDbLine
 10
290.361896
 20
20.443568
 30
0.0
 11
290.361896
 21
19.954158
 31
0.0
  0
LINE
  5
357
100
AcDbEntity
  8
2
370
     9
  6
Continuous
 62
   134
100
AcDbLine
 10
290.361896
 20
19.954158
 30
0.0
 11
290.688169
 21
19.954158
 31
0.0
  0
LINE
  5
358
100
AcDbEntity
  8
2
370
     9
  6
Continuous
 62
   134
100
AcDbLine
 10
290.688169
 20
19.954158
 30
0.0
 11
290.688169
 21
20.443568
 31
0.0
  0
LINE
  5
359
100
AcDbEntity
  8
2
370
     9
  6
Continuous
 62
   134
100
AcDbLine
 10
290.688169
 20
20.443568
 30
0.0
 11
290.361896
 21
20.443568
 31
0.0
  0
ENDBLK
  5
35A
100
AcDbEntity
  8
0
100
AcDbBlockEnd
  0
BLOCK
  5
35D
100
AcDbEntity
  8
0
370
     9
  6
Continuous
 62
     7
100
AcDbBlockBegin
  2
*G34
 70
     0
 10
0.0
 20
0.0
 30
0.0
  3
*G34
  1

  0
LINE
  5
35E
100
AcDbEntity
  8
2
370
     9
  6
Continuous
 62
   134
100
AcDbLine
 10
292.408518
 20
19.479579
 30
0.0
 11
292.408518
 21
20.443568
 31
0.0
  0
LINE
  5
35F
100
AcDbEntity
  8
2
370
     9
  6
Continuous
 62
   134
100
AcDbLine
 10
292.408518
 20
20.443568
 30
0.0
 11
292.171228
 21
20.443568
 31
0.0
  0
LINE
  5
360
100
AcDbEntity
  8
2
370
     9
  6
Continuous
 62
   134
100
AcDbLine
 10
292.171228
 20
20.443568
 30
0.0
 11
292.171228
 21
19.479579
 31
0.0
  0
LINE
  5
361
100
AcDbEntity
  8
2
370
     9
  6
Continuous
 62
   134
100
AcDbLine
 10
292.171228
 20
19.479579
 30
0.0
 11
292.408518
 21
19.479579
 31
0.0
  0
ENDBLK
  5
362
100
AcDbEntity
  8
0
100
AcDbBlockEnd
  0
BLOCK
  5
365
100
AcDbEntity
  8
0
370
     9
  6
Continuous
 62
     7
100
AcDbBlockBegin
  2
*G35
 70
     0
 10
0.0
 20
0.0
 30
0.0
  3
*G35
  1

  0
LINE
  5
366
100
AcDbEntity
  8
2
370
     9
  6
Continuous
 62
   134
100
AcDbLine
 10
293.268693
 20
20.443568
 30
0.0
 11
293.268693
 21
19.479579
 31
0.0
  0
LINE
  5
367
100
AcDbEntity
  8
2
370
     9
  6
Continuous
 62
   134
100
AcDbLine
 10
293.268693
 20
19.479579
 30
0.0
 11
293.520813
 21
19.479579
 31
0.0
  0
LINE
  5
368
100
AcDbEntity
  8
2
370
     9
  6
Continuous
 62
   134
100
AcDbLine
 10
293.520813
 20
19.479579
 30
0.0
 11
293.520813
 21
20.443568
 31
0.0
  0
LINE
  5
369
100
AcDbEntity
  8
2
370
     9
  6
Continuous
 62
   134
100
AcDbLine
 10
293.520813
 20
20.443568
 30
0.0
 11
293.268693
 21
20.443568
 31
0.0
  0
ENDBLK
  5
36A
100
AcDbEntity
  8
0
100
AcDbBlockEnd
  0
BLOCK
  5
3BF
100
AcDbEntity
  8
0
370
     9
  6
Continuous
 62
     7
100
AcDbBlockBegin
  2
*G36
 70
     0
 10
0.0
 20
0.0
 30
0.0
  3
*G36
  1

  0
LINE
  5
3C0
100
AcDbEntity
  8
2
370
     9
  6
Continuous
 62
   134
100
AcDbLine
 10
296.360872
 20
21.377895
 30
0.0
 11
296.360872
 21
20.831504
 31
0.0
  0
LINE
  5
3C1
100
AcDbEntity
  8
2
370
     9
  6
Continuous
 62
   134
100
AcDbLine
 10
296.360872
 20
20.831504
 30
0.0
 11
296.820621
 21
20.831504
 31
0.0
  0
LINE
  5
3C2
100
AcDbEntity
  8
2
370
     9
  6
Continuous
 62
   134
100
AcDbLine
 10
296.820621
 20
20.831504
 30
0.0
 11
296.820621
 21
21.377895
 31
0.0
  0
LINE
  5
3C3
100
AcDbEntity
  8
2
370
     9
  6
Continuous
 62
   134
100
AcDbLine
 10
296.820621
 20
21.377895
 30
0.0
 11
296.360872
 21
21.377895
 31
0.0
  0
ENDBLK
  5
3C4
100
AcDbEntity
  8
0
100
AcDbBlockEnd
  0
BLOCK
  5
3C7
100
AcDbEntity
  8
0
370
     9
  6
Continuous
 62
     7
100
AcDbBlockBegin
  2
*G37
 70
     0
 10
0.0
 20
0.0
 30
0.0
  3
*G37
  1

  0
LINE
  5
3C8
100
AcDbEntity
  8
2
370
     9
  6
Continuous
 62
   134
100
AcDbLine
 10
298.466817
 20
21.377895
 30
0.0
 11
298.466817
 21
20.831504
 31
0.0
  0
LINE
  5
3C9
100
AcDbEntity
  8
2
370
     9
  6
Continuous
 62
   134
100
AcDbLine
 10
298.466817
 20
20.831504
 30
0.0
 11
298.007068
 21
20.831504
 31
0.0
  0
LINE
  5
3CA
100
AcDbEntity
  8
2
370
     9
  6
Continuous
 62
   134
100
AcDbLine
 10
298.007068
 20
20.831504
 30
0.0
 11
298.007068
 21
21.377895
 31
0.0
  0
LINE
  5
3CB
100
AcDbEntity
  8
2
370
     9
  6
Continuous
 62
   134
100
AcDbLine
 10
298.007068
 20
21.377895
 30
0.0
 11
298.466817
 21
21.377895
 31
0.0
  0
ENDBLK
  5
3CC
100
AcDbEntity
  8
0
100
AcDbBlockEnd
  0
BLOCK
  5
3E5
100
AcDbEntity
  8
0
370
     9
  6
Continuous
 62
     7
100
AcDbBlockBegin
  2
*G38
 70
     0
 10
0.0
 20
0.0
 30
0.0
  3
*G38
  1

  0
LINE
  5
3E6
100
AcDbEntity
  8
2
370
     9
  6
Continuous
 62
   134
100
AcDbLine
 10
319.599771
 20
21.377895
 30
0.0
 11
319.599771
 21
20.972395
 31
0.0
  0
LINE
  5
3E7
100
AcDbEntity
  8
2
370
     9
  6
Continuous
 62
   134
100
AcDbLine
 10
319.599771
 20
20.972395
 30
0.0
 11
318.413323
 21
20.972395
 31
0.0
  0
LINE
  5
3E8
100
AcDbEntity
  8
2
370
     9
  6
Continuous
 62
   134
100
AcDbLine
 10
318.413323
 20
20.972395
 30
0.0
 11
318.413323
 21
21.377895
 31
0.0
  0
LINE
  5
3E9
100
AcDbEntity
  8
2
370
     9
  6
Continuous
 62
   134
100
AcDbLine
 10
318.413323
 20
21.377895
 30
0.0
 11
319.599771
 21
21.377895
 31
0.0
  0
ENDBLK
  5
3EA
100
AcDbEntity
  8
0
100
AcDbBlockEnd
  0
BLOCK
  5
41E
100
AcDbEntity
  8
0
370
     9
  6
Continuous
 62
     7
100
AcDbBlockBegin
  2
*G39
 70
     0
 10
0.0
 20
0.0
 30
0.0
  3
*G39
  1

  0
LINE
  5
41F
100
AcDbEntity
  8
2
370
     9
  6
Continuous
 62
   134
100
AcDbLine
 10
300.222283
 20
20.290187
 30
0.0
 11
300.222283
 21
20.957564
 31
0.0
  0
LINE
  5
420
100
AcDbEntity
  8
2
370
     9
  6
Continuous
 62
   134
100
AcDbLine
 10
300.222283
 20
20.957564
 30
0.0
 11
304.152391
 21
20.957564
 31
0.0
  0
LINE
  5
421
100
AcDbEntity
  8
2
370
     9
  6
Continuous
 62
   134
100
AcDbLine
 10
304.152391
 20
20.957564
 30
0.0
 11
304.152391
 21
20.290187
 31
0.0
  0
LINE
  5
422
100
AcDbEntity
  8
2
370
     9
  6
Continuous
 62
   134
100
AcDbLine
 10
304.152391
 20
20.290187
 30
0.0
 11
302.728654
 21
20.290187
 31
0.0
  0
LINE
  5
423
100
AcDbEntity
  8
2
370
     9
  6
Continuous
 62
   134
100
AcDbLine
 10
301.63119
 20
20.290187
 30
0.0
 11
300.222283
 21
20.290187
 31
0.0
  0
ENDBLK
  5
424
100
AcDbEntity
  8
0
100
AcDbBlockEnd
  0
BLOCK
  5
427
100
AcDbEntity
  8
0
370
     9
  6
Continuous
 62
     7
100
AcDbBlockBegin
  2
*G40
 70
     0
 10
0.0
 20
0.0
 30
0.0
  3
*G40
  1

  0
LINE
  5
428
100
AcDbEntity
  8
2
370
     9
  6
Continuous
 62
   134
100
AcDbLine
 10
299.836687
 20
18.673652
 30
0.0
 11
299.836687
 21
18.006275
 31
0.0
  0
LINE
  5
429
100
AcDbEntity
  8
2
370
     9
  6
Continuous
 62
   134
100
AcDbLine
 10
299.836687
 20
18.006275
 30
0.0
 11
304.537987
 21
18.006275
 31
0.0
  0
LINE
  5
42A
100
AcDbEntity
  8
2
370
     9
  6
Continuous
 62
   134
100
AcDbLine
 10
304.537987
 20
18.006275
 30
0.0
 11
304.537987
 21
18.673652
 31
0.0
  0
LINE
  5
42B
100
AcDbEntity
  8
2
370
     9
  6
Continuous
 62
   134
100
AcDbLine
 10
301.63119
 20
18.673652
 30
0.0
 11
299.836687
 21
18.673652
 31
0.0
  0
LINE
  5
42C
100
AcDbEntity
  8
2
370
     9
  6
Continuous
 62
   134
100
AcDbLine
 10
304.537987
 20
18.673652
 30
0.0
 11
302.728654
 21
18.673652
 31
0.0
  0
ENDBLK
  5
42D
100
AcDbEntity
  8
0
100
AcDbBlockEnd
  0
BLOCK
  5
430
100
AcDbEntity
  8
0
370
     9
  6
Continuous
 62
     7
100
AcDbBlockBegin
  2
*G41
 70
     0
 10
0.0
 20
0.0
 30
0.0
  3
*G41
  1

  0
LINE
  5
431
100
AcDbEntity
  8
2
370
     9
  6
Continuous
 62
   134
100
AcDbLine
 10
306.436303
 20
21.377895
 30
0.0
 11
306.436303
 21
21.031717
 31
0.0
  0
LINE
  5
432
100
AcDbEntity
  8
2
370
     9
  6
Continuous
 62
   134
100
AcDbLine
 10
307.059188
 20
21.031717
 30
0.0
 11
307.059188
 21
21.377895
 31
0.0
  0
LINE
  5
433
100
AcDbEntity
  8
2
370
     9
  6
Continuous
 62
   134
100
AcDbLine
 10
307.059188
 20
21.377895
 30
0.0
 11
306.436303
 21
21.377895
 31
0.0
  0
ENDBLK
  5
434
100
AcDbEntity
  8
0
100
AcDbBlockEnd
  0
BLOCK
  5
437
100
AcDbEntity
  8
0
370
     9
  6
Continuous
 62
     7
100
AcDbBlockBegin
  2
*G42
 70
     0
 10
0.0
 20
0.0
 30
0.0
  3
*G42
  1

  0
LINE
  5
438
100
AcDbEntity
  8
2
370
     9
  6
Continuous
 62
   134
100
AcDbLine
 10
307.385462
 20
21.377895
 30
0.0
 11
307.385462
 21
21.031717
 31
0.0
  0
LINE
  5
439
100
AcDbEntity
  8
2
370
     9
  6
Continuous
 62
   134
100
AcDbLine
 10
308.008347
 20
21.031717
 30
0.0
 11
308.008347
 21
21.377895
 31
0.0
  0
LINE
  5
43A
100
AcDbEntity
  8
2
370
     9
  6
Continuous
 62
   134
100
AcDbLine
 10
308.008347
 20
21.377895
 30
0.0
 11
307.385462
 21
21.377895
 31
0.0
  0
ENDBLK
  5
43B
100
AcDbEntity
  8
0
100
AcDbBlockEnd
  0
BLOCK
  5
43E
100
AcDbEntity
  8
0
370
     9
  6
Continuous
 62
     7
100
AcDbBlockBegin
  2
*G43
 70
     0
 10
0.0
 20
0.0
 30
0.0
  3
*G43
  1

  0
LINE
  5
43F
100
AcDbEntity
  8
2
370
     9
  6
Continuous
 62
   134
100
AcDbLine
 10
304.871675
 20
21.031717
 30
0.0
 11
304.871675
 21
20.497816
 31
0.0
  0
LINE
  5
440
100
AcDbEntity
  8
2
370
     9
  6
Continuous
 62
   134
100
AcDbLine
 10
309.572975
 20
20.497816
 30
0.0
 11
309.572975
 21
21.031717
 31
0.0
  0
LINE
  5
441
100
AcDbEntity
  8
2
370
     9
  6
Continuous
 62
   134
100
AcDbLine
 10
305.555195
 20
21.031717
 30
0.0
 11
304.871675
 21
21.031717
 31
0.0
  0
LINE
  5
442
100
AcDbEntity
  8
2
370
     9
  6
Continuous
 62
   134
100
AcDbLine
 10
304.871675
 20
20.497816
 30
0.0
 11
305.808014
 21
20.497816
 31
0.0
  0
LINE
  5
443
100
AcDbEntity
  8
2
370
     9
  6
Continuous
 62
   134
100
AcDbLine
 10
306.436303
 20
21.031717
 30
0.0
 11
306.222403
 21
21.031717
 31
0.0
  0
LINE
  5
444
100
AcDbEntity
  8
2
370
     9
  6
Continuous
 62
   134
100
AcDbLine
 10
307.385462
 20
21.031717
 30
0.0
 11
307.059188
 21
21.031717
 31
0.0
  0
LINE
  5
445
100
AcDbEntity
  8
2
370
     9
  6
Continuous
 62
   134
100
AcDbLine
 10
309.572975
 20
21.031717
 30
0.0
 11
308.89208
 21
21.031717
 31
0.0
  0
LINE
  5
446
100
AcDbEntity
  8
2
370
     9
  6
Continuous
 62
   134
100
AcDbLine
 10
308.228208
 20
21.031717
 30
0.0
 11
308.008347
 21
21.031717
 31
0.0
  0
LINE
  5
447
100
AcDbEntity
  8
2
370
     9
  6
Continuous
 62
   134
100
AcDbLine
 10
306.565233
 20
20.497816
 30
0.0
 11
307.883334
 21
20.497816
 31
0.0
  0
LINE
  5
448
100
AcDbEntity
  8
2
370
     9
  6
Continuous
 62
   134
100
AcDbLine
 10
308.636733
 20
20.497816
 30
0.0
 11
309.572975
 21
20.497816
 31
0.0
  0
ENDBLK
  5
449
100
AcDbEntity
  8
0
100
AcDbBlockEnd
  0
BLOCK
  5
44C
100
AcDbEntity
  8
0
370
     9
  6
Continuous
 62
     7
100
AcDbBlockBegin
  2
*G44
 70
     0
 10
0.0
 20
0.0
 30
0.0
  3
*G44
  1

  0
LINE
  5
44D
100
AcDbEntity
  8
2
370
     9
  6
Continuous
 62
   134
100
AcDbLine
 10
305.346254
 20
19.474504
 30
0.0
 11
305.346254
 21
18.940603
 31
0.0
  0
LINE
  5
44E
100
AcDbEntity
  8
2
370
     9
  6
Continuous
 62
   134
100
AcDbLine
 10
309.039073
 20
18.940603
 30
0.0
 11
309.039073
 21
19.474504
 31
0.0
  0
LINE
  5
44F
100
AcDbEntity
  8
2
370
     9
  6
Continuous
 62
   134
100
AcDbLine
 10
309.039073
 20
19.474504
 30
0.0
 11
307.689489
 21
19.474504
 31
0.0
  0
LINE
  5
450
100
AcDbEntity
  8
2
370
     9
  6
Continuous
 62
   134
100
AcDbLine
 10
306.755161
 20
19.474504
 30
0.0
 11
305.346254
 21
19.474504
 31
0.0
  0
LINE
  5
451
100
AcDbEntity
  8
2
370
     9
  6
Continuous
 62
   134
100
AcDbLine
 10
307.689489
 20
18.940603
 30
0.0
 11
309.039073
 21
18.940603
 31
0.0
  0
LINE
  5
452
100
AcDbEntity
  8
2
370
     9
  6
Continuous
 62
   134
100
AcDbLine
 10
305.346254
 20
18.940603
 30
0.0
 11
306.755161
 21
18.940603
 31
0.0
  0
ENDBLK
  5
453
100
AcDbEntity
  8
0
100
AcDbBlockEnd
  0
BLOCK
  5
456
100
AcDbEntity
  8
0
370
     9
  6
Continuous
 62
     7
100
AcDbBlockBegin
  2
*G45
 70
     0
 10
0.0
 20
0.0
 30
0.0
  3
*G45
  1

  0
LINE
  5
457
100
AcDbEntity
  8
2
370
     9
  6
Continuous
 62
   134
100
AcDbLine
 10
309.261532
 20
20.141881
 30
0.0
 11
309.261532
 21
19.60798
 31
0.0
  0
LINE
  5
458
100
AcDbEntity
  8
2
370
     9
  6
Continuous
 62
   134
100
AcDbLine
 10
305.183118
 20
19.60798
 30
0.0
 11
305.183118
 21
20.141881
 31
0.0
  0
LINE
  5
459
100
AcDbEntity
  8
2
370
     9
  6
Continuous
 62
   134
100
AcDbLine
 10
309.261532
 20
19.60798
 30
0.0
 11
307.689489
 21
19.60798
 31
0.0
  0
LINE
  5
45A
100
AcDbEntity
  8
2
370
     9
  6
Continuous
 62
   134
100
AcDbLine
 10
306.755161
 20
19.60798
 30
0.0
 11
305.183118
 21
19.60798
 31
0.0
  0
LINE
  5
45B
100
AcDbEntity
  8
2
370
     9
  6
Continuous
 62
   134
100
AcDbLine
 10
305.183118
 20
20.141881
 30
0.0
 11
306.036567
 21
20.141881
 31
0.0
  0
LINE
  5
45C
100
AcDbEntity
  8
2
370
     9
  6
Continuous
 62
   134
100
AcDbLine
 10
306.793787
 20
20.141881
 30
0.0
 11
307.653418
 21
20.141881
 31
0.0
  0
LINE
  5
45D
100
AcDbEntity
  8
2
370
     9
  6
Continuous
 62
   134
100
AcDbLine
 10
308.406817
 20
20.141881
 30
0.0
 11
309.261532
 21
20.141881
 31
0.0
  0
ENDBLK
  5
45E
100
AcDbEntity
  8
0
100
AcDbBlockEnd
  0
BLOCK
  5
461
100
AcDbEntity
  8
0
370
     9
  6
Continuous
 62
     7
100
AcDbBlockBegin
  2
*G46
 70
     0
 10
0.0
 20
0.0
 30
0.0
  3
*G46
  1

  0
LINE
  5
462
100
AcDbEntity
  8
2
370
     9
  6
Continuous
 62
   134
100
AcDbLine
 10
309.572975
 20
18.807128
 30
0.0
 11
309.572975
 21
18.258395
 31
0.0
  0
LINE
  5
463
100
AcDbEntity
  8
2
370
     9
  6
Continuous
 62
   134
100
AcDbLine
 10
304.871675
 20
18.258395
 30
0.0
 11
304.871675
 21
18.807128
 31
0.0
  0
LINE
  5
464
100
AcDbEntity
  8
2
370
     9
  6
Continuous
 62
   134
100
AcDbLine
 10
304.871675
 20
18.807128
 30
0.0
 11
306.755161
 21
18.807128
 31
0.0
  0
LINE
  5
465
100
AcDbEntity
  8
2
370
     9
  6
Continuous
 62
   134
100
AcDbLine
 10
307.689489
 20
18.807128
 30
0.0
 11
309.572975
 21
18.807128
 31
0.0
  0
LINE
  5
466
100
AcDbEntity
  8
2
370
     9
  6
Continuous
 62
   134
100
AcDbLine
 10
306.755161
 20
18.258395
 30
0.0
 11
306.483398
 21
18.258395
 31
0.0
  0
LINE
  5
467
100
AcDbEntity
  8
2
370
     9
  6
Continuous
 62
   134
100
AcDbLine
 10
305.621933
 20
18.258395
 30
0.0
 11
304.871675
 21
18.258395
 31
0.0
  0
LINE
  5
468
100
AcDbEntity
  8
2
370
     9
  6
Continuous
 62
   134
100
AcDbLine
 10
309.572975
 20
18.258395
 30
0.0
 11
308.869835
 21
18.258395
 31
0.0
  0
LINE
  5
469
100
AcDbEntity
  8
2
370
     9
  6
Continuous
 62
   134
100
AcDbLine
 10
308.008347
 20
18.258395
 30
0.0
 11
307.689489
 21
18.258395
 31
0.0
  0
ENDBLK
  5
46A
100
AcDbEntity
  8
0
100
AcDbBlockEnd
  0
BLOCK
  5
46D
100
AcDbEntity
  8
0
370
     9
  6
Continuous
 62
     7
100
AcDbBlockBegin
  2
*G47
 70
     0
 10
0.0
 20
0.0
 30
0.0
  3
*G47
  1

  0
LINE
  5
46E
100
AcDbEntity
  8
2
370
     9
  6
Continuous
 62
   134
100
AcDbLine
 10
306.755161
 20
17.794594
 30
0.0
 11
307.689489
 21
17.794594
 31
0.0
  0
LINE
  5
46F
100
AcDbEntity
  8
2
370
     9
  6
Continuous
 62
   134
100
AcDbLine
 10
306.755161
 20
19.60798
 30
0.0
 11
306.755161
 21
19.474504
 31
0.0
  0
LINE
  5
470
100
AcDbEntity
  8
2
370
     9
  6
Continuous
 62
   134
100
AcDbLine
 10
306.755161
 20
18.940603
 30
0.0
 11
306.755161
 21
18.807128
 31
0.0
  0
LINE
  5
471
100
AcDbEntity
  8
2
370
     9
  6
Continuous
 62
   134
100
AcDbLine
 10
306.755161
 20
18.258395
 30
0.0
 11
306.755161
 21
17.794594
 31
0.0
  0
LINE
  5
472
100
AcDbEntity
  8
2
370
     9
  6
Continuous
 62
   134
100
AcDbLine
 10
307.689489
 20
19.474504
 30
0.0
 11
307.689489
 21
19.60798
 31
0.0
  0
LINE
  5
473
100
AcDbEntity
  8
2
370
     9
  6
Continuous
 62
   134
100
AcDbLine
 10
307.689489
 20
17.794594
 30
0.0
 11
307.689489
 21
18.258395
 31
0.0
  0
LINE
  5
474
100
AcDbEntity
  8
2
370
     9
  6
Continuous
 62
   134
100
AcDbLine
 10
307.689489
 20
18.807128
 30
0.0
 11
307.689489
 21
18.940603
 31
0.0
  0
ENDBLK
  5
475
100
AcDbEntity
  8
0
100
AcDbBlockEnd
  0
BLOCK
  5
478
100
AcDbEntity
  8
0
370
     9
  6
Continuous
 62
     7
100
AcDbBlockBegin
  2
*G48
 70
     0
 10
0.0
 20
0.0
 30
0.0
  3
*G48
  1

  0
LINE
  5
479
100
AcDbEntity
  8
2
370
     9
  6
Continuous
 62
   134
100
AcDbLine
 10
311.628325
 20
20.497816
 30
0.0
 11
311.628325
 21
19.889761
 31
0.0
  0
LINE
  5
47A
100
AcDbEntity
  8
2
370
     9
  6
Continuous
 62
   134
100
AcDbLine
 10
309.907976
 20
19.889761
 30
0.0
 11
309.907976
 21
20.497816
 31
0.0
  0
LINE
  5
47B
100
AcDbEntity
  8
2
370
     9
  6
Continuous
 62
   134
100
AcDbLine
 10
309.907976
 20
20.497816
 30
0.0
 11
310.456708
 21
20.497816
 31
0.0
  0
LINE
  5
47C
100
AcDbEntity
  8
2
370
     9
  6
Continuous
 62
   134
100
AcDbLine
 10
311.153746
 20
20.497816
 30
0.0
 11
311.628325
 21
20.497816
 31
0.0
  0
LINE
  5
47D
100
AcDbEntity
  8
2
370
     9
  6
Continuous
 62
   134
100
AcDbLine
 10
311.628325
 20
19.889761
 30
0.0
 11
311.153746
 21
19.889761
 31
0.0
  0
LINE
  5
47E
100
AcDbEntity
  8
2
370
     9
  6
Continuous
 62
   134
100
AcDbLine
 10
310.456708
 20
19.889761
 30
0.0
 11
309.907976
 21
19.889761
 31
0.0
  0
ENDBLK
  5
47F
100
AcDbEntity
  8
0
100
AcDbBlockEnd
  0
BLOCK
  5
482
100
AcDbEntity
  8
0
370
     9
  6
Continuous
 62
     7
100
AcDbBlockBegin
  2
*G49
 70
     0
 10
0.0
 20
0.0
 30
0.0
  3
*G49
  1

  0
LINE
  5
483
100
AcDbEntity
  8
2
370
     9
  6
Continuous
 62
   134
100
AcDbLine
 10
311.717308
 20
21.377895
 30
0.0
 11
311.717308
 21
20.497816
 31
0.0
  0
LINE
  5
484
100
AcDbEntity
  8
2
370
     9
  6
Continuous
 62
   134
100
AcDbLine
 10
311.717308
 20
20.497816
 30
0.0
 11
312.42901
 21
20.497816
 31
0.0
  0
LINE
  5
485
100
AcDbEntity
  8
2
370
     9
  6
Continuous
 62
   134
100
AcDbLine
 10
312.42901
 20
21.377895
 30
0.0
 11
311.717308
 21
21.377895
 31
0.0
  0
LINE
  5
486
100
AcDbEntity
  8
2
370
     9
  6
Continuous
 62
   134
100
AcDbLine
 10
312.42901
 20
21.031717
 30
0.0
 11
312.42901
 21
21.377895
 31
0.0
  0
ENDBLK
  5
487
100
AcDbEntity
  8
0
100
AcDbBlockEnd
  0
BLOCK
  5
48A
100
AcDbEntity
  8
0
370
     9
  6
Continuous
 62
     7
100
AcDbBlockBegin
  2
*G50
 70
     0
 10
0.0
 20
0.0
 30
0.0
  3
*G50
  1

  0
LINE
  5
48B
100
AcDbEntity
  8
2
370
     9
  6
Continuous
 62
   134
100
AcDbLine
 10
312.666467
 20
17.794594
 30
0.0
 11
313.526641
 21
17.794594
 31
0.0
  0
LINE
  5
48C
100
AcDbEntity
  8
2
370
     9
  6
Continuous
 62
   134
100
AcDbLine
 10
313.526641
 20
21.377895
 30
0.0
 11
312.666467
 21
21.377895
 31
0.0
  0
LINE
  5
48D
100
AcDbEntity
  8
2
370
     9
  6
Continuous
 62
   134
100
AcDbLine
 10
312.666467
 20
21.377895
 30
0.0
 11
312.666467
 21
21.031717
 31
0.0
  0
LINE
  5
48E
100
AcDbEntity
  8
2
370
     9
  6
Continuous
 62
   134
100
AcDbLine
 10
312.666467
 20
20.497816
 30
0.0
 11
312.666467
 21
20.082559
 31
0.0
  0
LINE
  5
48F
100
AcDbEntity
  8
2
370
     9
  6
Continuous
 62
   134
100
AcDbLine
 10
312.666467
 20
18.748183
 30
0.0
 11
312.666467
 21
17.794594
 31
0.0
  0
LINE
  5
490
100
AcDbEntity
  8
2
370
     9
  6
Continuous
 62
   134
100
AcDbLine
 10
313.526641
 20
17.794594
 30
0.0
 11
313.526641
 21
18.748184
 31
0.0
  0
LINE
  5
491
100
AcDbEntity
  8
2
370
     9
  6
Continuous
 62
   134
100
AcDbLine
 10
313.526641
 20
20.082559
 30
0.0
 11
313.526641
 21
20.497816
 31
0.0
  0
LINE
  5
492
100
AcDbEntity
  8
2
370
     9
  6
Continuous
 62
   134
100
AcDbLine
 10
313.526641
 20
21.031717
 30
0.0
 11
313.526641
 21
21.377895
 31
0.0
  0
ENDBLK
  5
493
100
AcDbEntity
  8
0
100
AcDbBlockEnd
  0
BLOCK
  5
496
100
AcDbEntity
  8
0
370
     9
  6
Continuous
 62
     7
100
AcDbBlockBegin
  2
*G51
 70
     0
 10
0.0
 20
0.0
 30
0.0
  3
*G51
  1

  0
LINE
  5
497
100
AcDbEntity
  8
2
370
     9
  6
Continuous
 62
   134
100
AcDbLine
 10
311.717308
 20
20.082559
 30
0.0
 11
311.717308
 21
19.474504
 31
0.0
  0
LINE
  5
498
100
AcDbEntity
  8
2
370
     9
  6
Continuous
 62
   134
100
AcDbLine
 10
314.468384
 20
19.474504
 30
0.0
 11
314.468384
 21
20.082559
 31
0.0
  0
LINE
  5
499
100
AcDbEntity
  8
2
370
     9
  6
Continuous
 62
   134
100
AcDbLine
 10
314.468384
 20
20.082559
 30
0.0
 11
313.526641
 21
20.082559
 31
0.0
  0
LINE
  5
49A
100
AcDbEntity
  8
2
370
     9
  6
Continuous
 62
   134
100
AcDbLine
 10
312.666467
 20
20.082559
 30
0.0
 11
311.717308
 21
20.082559
 31
0.0
  0
LINE
  5
49B
100
AcDbEntity
  8
2
370
     9
  6
Continuous
 62
   134
100
AcDbLine
 10
311.717308
 20
19.474504
 30
0.0
 11
312.184472
 21
19.474504
 31
0.0
  0
LINE
  5
49C
100
AcDbEntity
  8
2
370
     9
  6
Continuous
 62
   134
100
AcDbLine
 10
313.993805
 20
19.474504
 30
0.0
 11
314.468384
 21
19.474504
 31
0.0
  0
ENDBLK
  5
49D
100
AcDbEntity
  8
0
100
AcDbBlockEnd
  0
BLOCK
  5
4A0
100
AcDbEntity
  8
0
370
     9
  6
Continuous
 62
     7
100
AcDbBlockBegin
  2
*G52
 70
     0
 10
0.0
 20
0.0
 30
0.0
  3
*G52
  1

  0
LINE
  5
4A1
100
AcDbEntity
  8
2
370
     9
  6
Continuous
 62
   134
100
AcDbLine
 10
314.972625
 20
19.756286
 30
0.0
 11
314.972625
 21
19.148231
 31
0.0
  0
LINE
  5
4A2
100
AcDbEntity
  8
2
370
     9
  6
Continuous
 62
   134
100
AcDbLine
 10
317.478996
 20
19.148231
 30
0.0
 11
317.478996
 21
19.756286
 31
0.0
  0
LINE
  5
4A3
100
AcDbEntity
  8
2
370
     9
  6
Continuous
 62
   134
100
AcDbLine
 10
317.478996
 20
19.756286
 30
0.0
 11
314.972625
 21
19.756286
 31
0.0
  0
LINE
  5
4A4
100
AcDbEntity
  8
2
370
     9
  6
Continuous
 62
   134
100
AcDbLine
 10
314.972625
 20
19.148231
 30
0.0
 11
315.832799
 21
19.148231
 31
0.0
  0
LINE
  5
4A5
100
AcDbEntity
  8
2
370
     9
  6
Continuous
 62
   134
100
AcDbLine
 10
316.60399
 20
19.148231
 30
0.0
 11
317.478996
 21
19.148231
 31
0.0
  0
ENDBLK
  5
4A6
100
AcDbEntity
  8
0
100
AcDbBlockEnd
  0
BLOCK
  5
4A9
100
AcDbEntity
  8
0
370
     9
  6
Continuous
 62
     7
100
AcDbBlockBegin
  2
*G53
 70
     0
 10
0.0
 20
0.0
 30
0.0
  3
*G53
  1

  0
LINE
  5
4AA
100
AcDbEntity
  8
2
370
     9
  6
Continuous
 62
   134
100
AcDbLine
 10
319.673924
 20
20.764766
 30
0.0
 11
319.673924
 21
20.156712
 31
0.0
  0
LINE
  5
4AB
100
AcDbEntity
  8
2
370
     9
  6
Continuous
 62
   134
100
AcDbLine
 10
314.972625
 20
20.156712
 30
0.0
 11
314.972625
 21
20.764766
 31
0.0
  0
LINE
  5
4AC
100
AcDbEntity
  8
2
370
     9
  6
Continuous
 62
   134
100
AcDbLine
 10
314.972625
 20
20.764766
 30
0.0
 11
317.119857
 21
20.764766
 31
0.0
  0
LINE
  5
4AD
100
AcDbEntity
  8
2
370
     9
  6
Continuous
 62
   134
100
AcDbLine
 10
317.9652
 20
20.764766
 30
0.0
 11
319.673924
 21
20.764766
 31
0.0
  0
LINE
  5
4AE
100
AcDbEntity
  8
2
370
     9
  6
Continuous
 62
   134
100
AcDbLine
 10
319.673924
 20
20.156712
 30
0.0
 11
318.315011
 21
20.156712
 31
0.0
  0
LINE
  5
4AF
100
AcDbEntity
  8
2
370
     9
  6
Continuous
 62
   134
100
AcDbLine
 10
317.469667
 20
20.156712
 30
0.0
 11
314.972625
 21
20.156712
 31
0.0
  0
ENDBLK
  5
4B0
100
AcDbEntity
  8
0
100
AcDbBlockEnd
  0
BLOCK
  5
4B7
100
AcDbEntity
  8
0
370
     9
  6
Continuous
 62
     7
100
AcDbBlockBegin
  2
*G54
 70
     0
 10
0.0
 20
0.0
 30
0.0
  3
*G54
  1

  0
LINE
  5
4B8
100
AcDbEntity
  8
2
370
     9
  6
Continuous
 62
   134
100
AcDbLine
 10
327.097515
 20
20.557138
 30
0.0
 11
327.097515
 21
19.889761
 31
0.0
  0
LINE
  5
4B9
100
AcDbEntity
  8
2
370
     9
  6
Continuous
 62
   134
100
AcDbLine
 10
329.603886
 20
19.889761
 30
0.0
 11
329.603886
 21
20.557138
 31
0.0
  0
LINE
  5
4BA
100
AcDbEntity
  8
2
370
     9
  6
Continuous
 62
   134
100
AcDbLine
 10
329.603886
 20
20.557138
 30
0.0
 11
328.72888
 21
20.557138
 31
0.0
  0
LINE
  5
4BB
100
AcDbEntity
  8
2
370
     9
  6
Continuous
 62
   134
100
AcDbLine
 10
327.957689
 20
20.557138
 30
0.0
 11
327.097515
 21
20.557138
 31
0.0
  0
LINE
  5
4BC
100
AcDbEntity
  8
2
370
     9
  6
Continuous
 62
   134
100
AcDbLine
 10
327.097515
 20
19.889761
 30
0.0
 11
327.957689
 21
19.889761
 31
0.0
  0
LINE
  5
4BD
100
AcDbEntity
  8
2
370
     9
  6
Continuous
 62
   134
100
AcDbLine
 10
328.72888
 20
19.889761
 30
0.0
 11
329.603886
 21
19.889761
 31
0.0
  0
ENDBLK
  5
4BE
100
AcDbEntity
  8
0
100
AcDbBlockEnd
  0
BLOCK
  5
4C1
100
AcDbEntity
  8
0
370
     9
  6
Continuous
 62
     7
100
AcDbBlockBegin
  2
*G55
 70
     0
 10
0.0
 20
0.0
 30
0.0
  3
*G55
  1

  0
LINE
  5
4C2
100
AcDbEntity
  8
2
370
     9
  6
Continuous
 62
   134
100
AcDbLine
 10
327.011948
 20
18.525346
 30
0.0
 11
327.011948
 21
17.8728
 31
0.0
  0
LINE
  5
4C3
100
AcDbEntity
  8
2
370
     9
  6
Continuous
 62
   134
100
AcDbLine
 10
327.011948
 20
17.8728
 30
0.0
 11
329.752192
 21
17.8728
 31
0.0
  0
LINE
  5
4C4
100
AcDbEntity
  8
2
370
     9
  6
Continuous
 62
   134
100
AcDbLine
 10
329.752192
 20
17.8728
 30
0.0
 11
329.752192
 21
18.525346
 31
0.0
  0
LINE
  5
4C5
100
AcDbEntity
  8
2
370
     9
  6
Continuous
 62
   134
100
AcDbLine
 10
329.752192
 20
18.525346
 30
0.0
 11
328.72888
 21
18.525346
 31
0.0
  0
LINE
  5
4C6
100
AcDbEntity
  8
2
370
     9
  6
Continuous
 62
   134
100
AcDbLine
 10
327.957689
 20
18.525346
 30
0.0
 11
327.011948
 21
18.525346
 31
0.0
  0
ENDBLK
  5
4C7
100
AcDbEntity
  8
0
100
AcDbBlockEnd
  0
BLOCK
  5
4CA
100
AcDbEntity
  8
0
370
     9
  6
Continuous
 62
     7
100
AcDbBlockBegin
  2
*G56
 70
     0
 10
0.0
 20
0.0
 30
0.0
  3
*G56
  1

  0
LINE
  5
4CB
100
AcDbEntity
  8
2
370
     9
  6
Continuous
 62
   134
100
AcDbLine
 10
328.72888
 20
21.377895
 30
0.0
 11
327.957689
 21
21.377895
 31
0.0
  0
LINE
  5
4CC
100
AcDbEntity
  8
2
370
     9
  6
Continuous
 62
   134
100
AcDbLine
 10
327.957689
 20
21.377895
 30
0.0
 11
327.957689
 21
20.557138
 31
0.0
  0
LINE
  5
4CD
100
AcDbEntity
  8
2
370
     9
  6
Continuous
 62
   134
100
AcDbLine
 10
328.72888
 20
20.557138
 30
0.0
 11
328.72888
 21
21.377895
 31
0.0
  0
LINE
  5
4CE
100
AcDbEntity
  8
2
370
     9
  6
Continuous
 62
   134
100
AcDbLine
 10
327.957689
 20
19.889761
 30
0.0
 11
327.957689
 21
18.525346
 31
0.0
  0
LINE
  5
4CF
100
AcDbEntity
  8
2
370
     9
  6
Continuous
 62
   134
100
AcDbLine
 10
328.72888
 20
18.525346
 30
0.0
 11
328.72888
 21
19.889761
 31
0.0
  0
ENDBLK
  5
4D0
100
AcDbEntity
  8
0
100
AcDbBlockEnd
  0
BLOCK
  5
4D9
100
AcDbEntity
  8
0
370
     9
  6
Continuous
 62
     7
100
AcDbBlockBegin
  2
*G57
 70
     0
 10
0.0
 20
0.0
 30
0.0
  3
*G57
  1

  0
LINE
  5
4DA
100
AcDbEntity
  8
2
370
     9
  6
Continuous
 62
   134
100
AcDbLine
 10
310.456708
 20
17.794594
 30
0.0
 11
311.153746
 21
17.794594
 31
0.0
  0
LINE
  5
4DB
100
AcDbEntity
  8
2
370
     9
  6
Continuous
 62
   134
100
AcDbLine
 10
311.153746
 20
21.377895
 30
0.0
 11
310.456708
 21
21.377895
 31
0.0
  0
LINE
  5
4DC
100
AcDbEntity
  8
2
370
     9
  6
Continuous
 62
   134
100
AcDbLine
 10
310.456708
 20
21.377895
 30
0.0
 11
310.456708
 21
20.497816
 31
0.0
  0
LINE
  5
4DD
100
AcDbEntity
  8
2
370
     9
  6
Continuous
 62
   134
100
AcDbLine
 10
311.153746
 20
20.497816
 30
0.0
 11
311.153746
 21
21.377895
 31
0.0
  0
LINE
  5
4DE
100
AcDbEntity
  8
2
370
     9
  6
Continuous
 62
   134
100
AcDbLine
 10
310.456708
 20
18.933635
 30
0.0
 11
310.456708
 21
17.794594
 31
0.0
  0
LINE
  5
4DF
100
AcDbEntity
  8
2
370
     9
  6
Continuous
 62
   134
100
AcDbLine
 10
311.153746
 20
17.794594
 30
0.0
 11
311.153746
 21
19.180326
 31
0.0
  0
ENDBLK
  5
4E0
100
AcDbEntity
  8
0
100
AcDbBlockEnd
  0
BLOCK
  5
4E3
100
AcDbEntity
  8
0
370
     9
  6
Continuous
 62
     7
100
AcDbBlockBegin
  2
*G58
 70
     0
 10
0.0
 20
0.0
 30
0.0
  3
*G58
  1

  0
LINE
  5
4E4
100
AcDbEntity
  8
2
370
     9
  6
Continuous
 62
   134
100
AcDbLine
 10
314.468384
 20
21.031717
 30
0.0
 11
314.468384
 21
20.497816
 31
0.0
  0
LINE
  5
4E5
100
AcDbEntity
  8
2
370
     9
  6
Continuous
 62
   134
100
AcDbLine
 10
312.42901
 20
21.031717
 30
0.0
 11
312.666467
 21
21.031717
 31
0.0
  0
LINE
  5
4E6
100
AcDbEntity
  8
2
370
     9
  6
Continuous
 62
   134
100
AcDbLine
 10
313.526641
 20
21.031717
 30
0.0
 11
314.468384
 21
21.031717
 31
0.0
  0
LINE
  5
4E7
100
AcDbEntity
  8
2
370
     9
  6
Continuous
 62
   134
100
AcDbLine
 10
314.468384
 20
20.497816
 30
0.0
 11
313.526641
 21
20.497816
 31
0.0
  0
LINE
  5
4E8
100
AcDbEntity
  8
2
370
     9
  6
Continuous
 62
   134
100
AcDbLine
 10
312.666467
 20
20.497816
 30
0.0
 11
312.42901
 21
20.497816
 31
0.0
  0
ENDBLK
  5
4E9
100
AcDbEntity
  8
0
100
AcDbBlockEnd
  0
BLOCK
  5
4EC
100
AcDbEntity
  8
0
370
     9
  6
Continuous
 62
     7
100
AcDbBlockBegin
  2
*G59
 70
     0
 10
0.0
 20
0.0
 30
0.0
  3
*G59
  1

  0
LINE
  5
4ED
100
AcDbEntity
  8
2
370
     9
  6
Continuous
 62
   134
100
AcDbLine
 10
302.728654
 20
20.290187
 30
0.0
 11
302.728654
 21
18.673652
 31
0.0
  0
LINE
  5
4EE
100
AcDbEntity
  8
2
370
     9
  6
Continuous
 62
   134
100
AcDbLine
 10
301.63119
 20
18.673652
 30
0.0
 11
301.63119
 21
20.290187
 31
0.0
  0
ENDBLK
  5
4EF
100
AcDbEntity
  8
0
100
AcDbBlockEnd
  0
ENDSEC
  0
SECTION
  2
ENTITIES
  0
INSERT
  5
45
100
AcDbEntity
  8
0
370
     9
  6
Continuous
 62
     7
100
AcDbBlockReference
  2
*G0
 10
0.0
 20
0.0
 30
0.0
  0
LINE
  5
46
100
AcDbEntity
  8
2
370
     9
  6
Continuous
 62
   134
100
AcDbLine
 10
286.73901
 20
1.5
 30
0.0
 11
286.73901
 21
8.284209
 31
0.0
  0
LINE
  5
47
100
AcDbEntity
  8
2
370
     9
  6
Continuous
 62
   134
100
AcDbLine
 10
409.608567
 20
10.208963
 30
0.0
 11
409.608567
 21
9.760707
 31
0.0
  0
LINE
  5
48
100
AcDbEntity
  8
2
370
     9
  6
Continuous
 62
   134
100
AcDbLine
 10
286.73901
 20
1.5
 30
0.0
 11
286.73901
 21
8.284209
 31
0.0
  0
LINE
  5
49
100
AcDbEntity
  8
2
370
     9
  6
Continuous
 62
   134
100
AcDbLine
 10
409.608567
 20
10.208963
 30
0.0
 11
409.608567
 21
9.760707
 31
0.0
  0
LINE
  5
4A
100
AcDbEntity
  8
2
370
     9
  6
Continuous
 62
   134
100
AcDbLine
 10
8.971394
 20
285.5
 30
0.0
 11
8.971394
 21
1.5
 31
0.0
  0
LINE
  5
4B
100
AcDbEntity
  8
2
370
     9
  6
Continuous
 62
   134
100
AcDbLine
 10
8.971394
 20
285.5
 30
0.0
 11
8.971394
 21
1.5
 31
0.0
  0
LINE
  5
4C
100
AcDbEntity
  8
2
370
     9
  6
Continuous
 62
   134
100
AcDbLine
 10
372.339622
 20
1.5
 30
0.0
 11
372.339622
 21
21.852626
 31
0.0
  0
LINE
  5
4D
100
AcDbEntity
  8
2
370
     9
  6
Continuous
 62
   134
100
AcDbLine
 10
372.339622
 20
1.5
 30
0.0
 11
372.339622
 21
21.852626
 31
0.0
  0
LINE
  5
4E
100
AcDbEntity
  8
2
370
     9
  6
Continuous
 62
   134
100
AcDbLine
 10
409.608567
 20
1.5
 30
0.0
 11
279.430357
 21
1.5
 31
0.0
  0
LINE
  5
4F
100
AcDbEntity
  8
2
370
     9
  6
Continuous
 62
   134
100
AcDbLine
 10
409.608567
 20
208.795265
 30
0.0
 11
409.608567
 21
1.5
 31
0.0
  0
LINE
  5
50
100
AcDbEntity
  8
2
370
     9
  6
Continuous
 62
   134
100
AcDbLine
 10
409.608567
 20
1.5
 30
0.0
 11
279.430357
 21
1.5
 31
0.0
  0
LINE
  5
51
100
AcDbEntity
  8
2
370
     9
  6
Continuous
 62
   134
100
AcDbLine
 10
409.608567
 20
208.795265
 30
0.0
 11
409.608567
 21
1.5
 31
0.0
  0
LINE
  5
52
100
AcDbEntity
  8
2
370
     9
  6
Continuous
 62
   134
100
AcDbLine
 10
409.608567
 20
1.5
 30
0.0
 11
279.430357
 21
1.5
 31
0.0
  0
LINE
  5
53
100
AcDbEntity
  8
2
370
     9
  6
Continuous
 62
   134
100
AcDbLine
 10
409.608567
 20
208.795265
 30
0.0
 11
409.608567
 21
1.5
 31
0.0
  0
LINE
  5
54
100
AcDbEntity
  8
2
370
     9
  6
Continuous
 62
   134
100
AcDbLine
 10
409.608567
 20
1.5
 30
0.0
 11
286.73901
 21
1.5
 31
0.0
  0
LINE
  5
55
100
AcDbEntity
  8
2
370
     9
  6
Continuous
 62
   134
100
AcDbLine
 10
409.608567
 20
21.852626
 30
0.0
 11
409.608567
 21
1.5
 31
0.0
  0
LINE
  5
56
100
AcDbEntity
  8
2
370
     9
  6
Continuous
 62
   134
100
AcDbLine
 10
279.430357
 20
1.5
 30
0.0
 11
408.519947
 21
1.5
 31
0.0
  0
LINE
  5
57
100
AcDbEntity
  8
2
370
     9
  6
Continuous
 62
   134
100
AcDbLine
 10
409.608567
 20
1.5
 30
0.0
 11
409.608567
 21
3.613204
 31
0.0
  0
LINE
  5
58
100
AcDbEntity
  8
2
370
     9
  6
Continuous
 62
   134
100
AcDbLine
 10
407.431327
 20
1.5
 30
0.0
 11
409.608567
 21
1.5
 31
0.0
  0
LINE
  5
59
100
AcDbEntity
  8
2
370
     9
  6
Continuous
 62
   134
100
AcDbLine
 10
409.608567
 20
10.208963
 30
0.0
 11
409.608567
 21
1.5
 31
0.0
  0
LINE
  5
5A
100
AcDbEntity
  8
2
370
     9
  6
Continuous
 62
   134
100
AcDbLine
 10
409.608567
 20
10.208963
 30
0.0
 11
409.608567
 21
9.760707
 31
0.0
  0
LINE
  5
5B
100
AcDbEntity
  8
2
370
     9
  6
Continuous
 62
   134
100
AcDbLine
 10
409.608567
 20
1.5
 30
0.0
 11
279.430357
 21
1.5
 31
0.0
  0
LINE
  5
5C
100
AcDbEntity
  8
2
370
     9
  6
Continuous
 62
   134
100
AcDbLine
 10
409.608567
 20
208.795265
 30
0.0
 11
409.608567
 21
1.5
 31
0.0
  0
LINE
  5
5D
100
AcDbEntity
  8
2
370
     9
  6
Continuous
 62
   134
100
AcDbLine
 10
409.608567
 20
1.5
 30
0.0
 11
279.430357
 21
1.5
 31
0.0
  0
LINE
  5
5E
100
AcDbEntity
  8
2
370
     9
  6
Continuous
 62
   134
100
AcDbLine
 10
409.608567
 20
208.795265
 30
0.0
 11
409.608567
 21
1.5
 31
0.0
  0
LINE
  5
5F
100
AcDbEntity
  8
2
370
     9
  6
Continuous
 62
   134
100
AcDbLine
 10
409.608567
 20
1.5
 30
0.0
 11
279.430357
 21
1.5
 31
0.0
  0
LINE
  5
60
100
AcDbEntity
  8
2
370
     9
  6
Continuous
 62
   134
100
AcDbLine
 10
409.608567
 20
208.795265
 30
0.0
 11
409.608567
 21
1.5
 31
0.0
  0
LINE
  5
61
100
AcDbEntity
  8
2
370
     9
  6
Continuous
 62
   134
100
AcDbLine
 10
409.608567
 20
1.5
 30
0.0
 11
286.73901
 21
1.5
 31
0.0
  0
LINE
  5
62
100
AcDbEntity
  8
2
370
     9
  6
Continuous
 62
   134
100
AcDbLine
 10
409.608567
 20
21.852626
 30
0.0
 11
409.608567
 21
1.5
 31
0.0
  0
LINE
  5
63
100
AcDbEntity
  8
2
370
     9
  6
Continuous
 62
   134
100
AcDbLine
 10
279.430357
 20
1.5
 30
0.0
 11
408.519947
 21
1.5
 31
0.0
  0
LINE
  5
64
100
AcDbEntity
  8
2
370
     9
  6
Continuous
 62
   134
100
AcDbLine
 10
409.608567
 20
1.5
 30
0.0
 11
409.608567
 21
3.613204
 31
0.0
  0
LINE
  5
65
100
AcDbEntity
  8
2
370
     9
  6
Continuous
 62
   134
100
AcDbLine
 10
407.431327
 20
1.5
 30
0.0
 11
409.608567
 21
1.5
 31
0.0
  0
LINE
  5
66
100
AcDbEntity
  8
2
370
     9
  6
Continuous
 62
   134
100
AcDbLine
 10
409.608567
 20
10.208963
 30
0.0
 11
409.608567
 21
1.5
 31
0.0
  0
LINE
  5
67
100
AcDbEntity
  8
2
370
     9
  6
Continuous
 62
   134
100
AcDbLine
 10
409.608567
 20
10.208963
 30
0.0
 11
409.608567
 21
9.760707
 31
0.0
  0
LINE
  5
68
100
AcDbEntity
  8
2
370
     9
  6
Continuous
 62
   134
100
AcDbLine
 10
8.971394
 20
1.5
 30
0.0
 11
409.608567
 21
1.5
 31
0.0
  0
LINE
  5
69
100
AcDbEntity
  8
2
370
     9
  6
Continuous
 62
   134
100
AcDbLine
 10
8.971394
 20
1.5
 30
0.0
 11
409.608567
 21
1.5
 31
0.0
  0
LINE
  5
6A
100
AcDbEntity
  8
2
370
     9
  6
Continuous
 62
   134
100
AcDbLine
 10
409.608567
 20
1.5
 30
0.0
 11
409.608567
 21
232.07979
 31
0.0
  0
LINE
  5
6B
100
AcDbEntity
  8
2
370
     9
  6
Continuous
 62
   134
100
AcDbLine
 10
409.608567
 20
1.5
 30
0.0
 11
409.608567
 21
232.07979
 31
0.0
  0
LINE
  5
6C
100
AcDbEntity
  8
2
370
     9
  6
Continuous
 62
   134
100
AcDbLine
 10
409.608567
 20
285.5
 30
0.0
 11
409.608567
 21
9.760707
 31
0.0
  0
LINE
  5
6D
100
AcDbEntity
  8
2
370
     9
  6
Continuous
 62
   134
100
AcDbLine
 10
409.608567
 20
285.5
 30
0.0
 11
409.608567
 21
9.760707
 31
0.0
  0
LINE
  5
6E
100
AcDbEntity
  8
2
370
     9
  6
Continuous
 62
   134
100
AcDbLine
 10
409.608567
 20
285.5
 30
0.0
 11
8.971394
 21
285.5
 31
0.0
  0
LINE
  5
6F
100
AcDbEntity
  8
2
370
     9
  6
Continuous
 62
   134
100
AcDbLine
 10
409.608567
 20
285.5
 30
0.0
 11
8.971394
 21
285.5
 31
0.0
  0
TEXT
  5
70
100
AcDbEntity
  8
2
370
     9
  6
Continuous
 62
   134
100
AcDbText
 10
381.222509
 20
8.653029
 30
0.0
 40
2.261403
  1
DRAWING  NUMBER
 41
0.5
 11
381.222509
 21
8.653029
 31
0.0
100
AcDbText
 73
     1
  0
TEXT
  5
71
100
AcDbEntity
  8
2
370
     9
  6
Continuous
 62
   134
100
AcDbText
 10
379.111751
 20
19.24888
 30
0.0
 40
2.261403
  1
PART NAME
 41
0.5
 11
379.111751
 21
19.24888
 31
0.0
100
AcDbText
 73
     1
  0
TEXT
  5
72
100
AcDbEntity
  8
2
370
     9
  6
Continuous
 62
   134
100
AcDbText
 10
389.111751
 20
19.24888
 30
0.0
 40
2.261403
  1
PART NAME
 41
0.5
 11
389.111751
 21
19.24888
 31
0.0
100
AcDbText
 73
     1
  0
LINE
  5
73
100
AcDbEntity
  8
2
370
     9
  6
Continuous
 62
   134
100
AcDbLine
 10
318.398651
 20
14.723891
 30
0.0
 11
324.185742
 21
14.723891
 31
0.0
  0
LINE
  5
74
100
AcDbEntity
  8
2
370
     9
  6
Continuous
 62
   134
100
AcDbLine
 10
318.398651
 20
14.723891
 30
0.0
 11
324.185742
 21
14.723891
 31
0.0
  0
TEXT
  5
75
100
AcDbEntity
  8
2
370
     9
  6
Continuous
 62
   134
100
AcDbText
 10
364.955754
 20
19.24888
 30
0.0
 40
2.261403
  1
DRAWN
 41
0.5
 11
364.955754
 21
19.24888
 31
0.0
100
AcDbText
 73
     1
  0
TEXT
  5
76
100
AcDbEntity
  8
2
370
     9
  6
Continuous
 62
   134
100
AcDbText
 10
348.000475
 20
8.668816
 30
0.0
 40
2.261403
  1
PART CODE
 41
0.5
 11
348.000475
 21
8.668816
 31
0.0
100
AcDbText
 73
     1
  0
TEXT
  5
77
100
AcDbEntity
  8
2
370
     9
  6
Continuous
 62
   134
100
AcDbText
 10
311.409016
 20
8.653029
 30
0.0
 40
2.261403
  1
UNIT
 41
0.5
 11
311.409016
 21
8.653029
 31
0.0
100
AcDbText
 73
     1
  0
TEXT
  5
78
100
AcDbEntity
  8
2
370
     9
  6
Continuous
 62
   134
100
AcDbText
 10
293.27746
 20
8.653029
 30
0.0
 40
2.261403
  1
MATERIAL
 41
0.5
 11
293.27746
 21
8.653029
 31
0.0
100
AcDbText
 73
     1
  0
LINE
  5
79
100
AcDbEntity
  8
2
370
     9
  6
Continuous
 62
   134
100
AcDbLine
 10
309.353039
 20
7.654593
 30
0.0
 11
309.34227
 21
11.299413
 31
0.0
  0
TEXT
  5
7A
100
AcDbEntity
  8
2
370
     9
  6
Continuous
 62
   134
100
AcDbText
 10
333.574314
 20
19.175041
 30
0.0
 40
2.261403
  1
APPROVE
 41
0.5
 11
333.574314
 21
19.175041
 31
0.0
100
AcDbText
 73
     1
  0
TEXT
  5
7B
100
AcDbEntity
  8
2
370
     9
  6
Continuous
 62
   134
100
AcDbText
 10
343.690214
 20
19.175041
 30
0.0
 40
2.261403
  1
CHECKED
 41
0.5
 11
343.690214
 21
19.175041
 31
0.0
100
AcDbText
 73
     1
  0
TEXT
  5
7C
100
AcDbEntity
  8
2
370
     9
  6
Continuous
 62
   134
100
AcDbText
 10
353.732274
 20
19.24888
 30
0.0
 40
2.261403
  1
DESIGNED
 41
0.5
 11
353.732274
 21
19.24888
 31
0.0
100
AcDbText
 73
     1
  0
TEXT
  5
7D
100
AcDbEntity
  8
2
370
     9
  6
Continuous
 62
   134
100
AcDbText
 10
322.203157
 20
8.689949
 30
0.0
 40
2.261403
  1
WEIGHT
 41
0.5
 11
322.203157
 21
8.689949
 31
0.0
100
AcDbText
 73
     1
  0
LINE
  5
7E
100
AcDbEntity
  8
2
370
     9
  6
Continuous
 62
   134
100
AcDbLine
 10
309.353039
 20
7.654593
 30
0.0
 11
309.34227
 21
11.299413
 31
0.0
  0
TEXT
  5
7F
100
AcDbEntity
  8
2
370
     9
  6
Continuous
 62
   134
100
AcDbText
 10
333.574314
 20
19.175041
 30
0.0
 40
2.261403
  1
APPROVE
 41
0.5
 11
333.574314
 21
19.175041
 31
0.0
100
AcDbText
 73
     1
  0
TEXT
  5
80
100
AcDbEntity
  8
2
370
     9
  6
Continuous
 62
   134
100
AcDbText
 10
343.690214
 20
19.175041
 30
0.0
 40
2.261403
  1
CHECKED
 41
0.5
 11
343.690214
 21
19.175041
 31
0.0
100
AcDbText
 73
     1
  0
TEXT
  5
81
100
AcDbEntity
  8
2
370
     9
  6
Continuous
 62
   134
100
AcDbText
 10
353.732274
 20
19.24888
 30
0.0
 40
2.261403
  1
DESIGNED
 41
0.5
 11
353.732274
 21
19.24888
 31
0.0
100
AcDbText
 73
     1
  0
TEXT
  5
82
100
AcDbEntity
  8
2
370
     9
  6
Continuous
 62
   134
100
AcDbText
 10
364.955754
 20
19.24888
 30
0.0
 40
2.261403
  1
DRAWN
 41
0.5
 11
364.955754
 21
19.24888
 31
0.0
100
AcDbText
 73
     1
  0
TEXT
  5
83
100
AcDbEntity
  8
2
370
     9
  6
Continuous
 62
   134
100
AcDbText
 10
322.203157
 20
8.689949
 30
0.0
 40
2.261403
  1
WEIGHT
 41
0.5
 11
322.203157
 21
8.689949
 31
0.0
100
AcDbText
 73
     1
  0
LINE
  5
84
100
AcDbEntity
  8
2
370
     9
  6
Continuous
 62
   134
100
AcDbLine
 10
332.753553
 20
18.816839
 30
0.0
 11
409.608567
 21
18.816839
 31
0.0
  0
LINE
  5
85
100
AcDbEntity
  8
2
370
     9
  6
Continuous
 62
   134
100
AcDbLine
 10
286.73901
 20
1.5
 30
0.0
 11
286.73901
 21
8.284209
 31
0.0
  0
LINE
  5
86
100
AcDbEntity
  8
2
370
     9
  6
Continuous
 62
   134
100
AcDbLine
 10
332.753553
 20
18.816839
 30
0.0
 11
409.608567
 21
18.816839
 31
0.0
  0
LINE
  5
87
100
AcDbEntity
  8
2
370
     9
  6
Continuous
 62
   134
100
AcDbLine
 10
286.73901
 20
1.5
 30
0.0
 11
286.73901
 21
8.284209
 31
0.0
  0
LINE
  5
88
100
AcDbEntity
  8
2
370
     9
  6
Continuous
 62
   134
100
AcDbLine
 10
409.608567
 20
8.311195
 30
0.0
 11
328.951864
 21
8.311195
 31
0.0
  0
LINE
  5
89
100
AcDbEntity
  8
2
370
     9
  6
Continuous
 62
   134
100
AcDbLine
 10
409.608567
 20
8.311195
 30
0.0
 11
328.951864
 21
8.311195
 31
0.0
  0
LINE
  5
8A
100
AcDbEntity
  8
2
370
     9
  6
Continuous
 62
   134
100
AcDbLine
 10
332.753553
 20
1.5
 30
0.0
 11
332.753553
 21
11.299413
 31
0.0
  0
LINE
  5
8B
100
AcDbEntity
  8
2
370
     9
  6
Continuous
 62
   134
100
AcDbLine
 10
352.949747
 20
11.299413
 30
0.0
 11
352.949747
 21
21.852626
 31
0.0
  0
LINE
  5
8C
100
AcDbEntity
  8
2
370
     9
  6
Continuous
 62
   134
100
AcDbLine
 10
332.753553
 20
1.5
 30
0.0
 11
332.753553
 21
21.852626
 31
0.0
  0
LINE
  5
8D
100
AcDbEntity
  8
2
370
     9
  6
Continuous
 62
   134
100
AcDbLine
 10
309.353039
 20
1.5
 30
0.0
 11
309.353039
 21
8.284209
 31
0.0
  0
LINE
  5
8E
100
AcDbEntity
  8
2
370
     9
  6
Continuous
 62
   134
100
AcDbLine
 10
286.73901
 20
8.311195
 30
0.0
 11
328.951864
 21
8.311195
 31
0.0
  0
LINE
  5
8F
100
AcDbEntity
  8
2
370
     9
  6
Continuous
 62
   134
100
AcDbLine
 10
286.73901
 20
14.809256
 30
0.0
 11
299.165488
 21
14.809256
 31
0.0
  0
LINE
  5
90
100
AcDbEntity
  8
2
370
     9
  6
Continuous
 62
   134
100
AcDbLine
 10
342.353538
 20
21.852626
 30
0.0
 11
342.353538
 21
11.299413
 31
0.0
  0
LINE
  5
91
100
AcDbEntity
  8
2
370
     9
  6
Continuous
 62
   134
100
AcDbLine
 10
332.753553
 20
1.5
 30
0.0
 11
332.753553
 21
11.299413
 31
0.0
  0
LINE
  5
92
100
AcDbEntity
  8
2
370
     9
  6
Continuous
 62
   134
100
AcDbLine
 10
352.949747
 20
11.299413
 30
0.0
 11
352.949747
 21
21.852626
 31
0.0
  0
LINE
  5
93
100
AcDbEntity
  8
2
370
     9
  6
Continuous
 62
   134
100
AcDbLine
 10
332.753553
 20
1.5
 30
0.0
 11
332.753553
 21
21.852626
 31
0.0
  0
LINE
  5
94
100
AcDbEntity
  8
2
370
     9
  6
Continuous
 62
   134
100
AcDbLine
 10
309.353039
 20
1.5
 30
0.0
 11
309.353039
 21
8.284209
 31
0.0
  0
LINE
  5
95
100
AcDbEntity
  8
2
370
     9
  6
Continuous
 62
   134
100
AcDbLine
 10
286.73901
 20
8.311195
 30
0.0
 11
328.951864
 21
8.311195
 31
0.0
  0
LINE
  5
96
100
AcDbEntity
  8
2
370
     9
  6
Continuous
 62
   134
100
AcDbLine
 10
286.73901
 20
14.809256
 30
0.0
 11
299.165488
 21
14.809256
 31
0.0
  0
LINE
  5
97
100
AcDbEntity
  8
2
370
     9
  6
Continuous
 62
   134
100
AcDbLine
 10
342.353538
 20
21.852626
 30
0.0
 11
342.353538
 21
11.299413
 31
0.0
  0
LINE
  5
98
100
AcDbEntity
  8
2
370
     9
  6
Continuous
 62
   134
100
AcDbLine
 10
328.951864
 20
17.458351
 30
0.0
 11
332.753553
 21
17.458351
 31
0.0
  0
LINE
  5
99
100
AcDbEntity
  8
2
370
     9
  6
Continuous
 62
   134
100
AcDbLine
 10
328.951864
 20
17.458351
 30
0.0
 11
332.753553
 21
17.458351
 31
0.0
  0
LINE
  5
9A
100
AcDbEntity
  8
2
370
     9
  6
Continuous
 62
   134
100
AcDbLine
 10
286.73901
 20
17.458351
 30
0.0
 11
290.508015
 21
17.458351
 31
0.0
  0
LINE
  5
9B
100
AcDbEntity
  8
2
370
     9
  6
Continuous
 62
   134
100
AcDbLine
 10
363.405142
 20
21.852626
 30
0.0
 11
363.405142
 21
11.299413
 31
0.0
  0
LINE
  5
9C
100
AcDbEntity
  8
2
370
     9
  6
Continuous
 62
   134
100
AcDbLine
 10
299.165488
 20
14.809256
 30
0.0
 11
299.165488
 21
17.458351
 31
0.0
  0
LINE
  5
9D
100
AcDbEntity
  8
2
370
     9
  6
Continuous
 62
   134
100
AcDbLine
 10
290.459282
 20
17.458351
 30
0.0
 11
328.951864
 21
17.458351
 31
0.0
  0
LINE
  5
9E
100
AcDbEntity
  8
2
370
     9
  6
Continuous
 62
   134
100
AcDbLine
 10
318.398651
 20
1.5
 30
0.0
 11
318.398651
 21
17.458351
 31
0.0
  0
LINE
  5
9F
100
AcDbEntity
  8
2
370
     9
  6
Continuous
 62
   134
100
AcDbLine
 10
286.73901
 20
17.458351
 30
0.0
 11
290.508015
 21
17.458351
 31
0.0
  0
LINE
  5
A0
100
AcDbEntity
  8
2
370
     9
  6
Continuous
 62
   134
100
AcDbLine
 10
363.405142
 20
21.852626
 30
0.0
 11
363.405142
 21
11.299413
 31
0.0
  0
LINE
  5
A1
100
AcDbEntity
  8
2
370
     9
  6
Continuous
 62
   134
100
AcDbLine
 10
299.165488
 20
14.809256
 30
0.0
 11
299.165488
 21
17.458351
 31
0.0
  0
LINE
  5
A2
100
AcDbEntity
  8
2
370
     9
  6
Continuous
 62
   134
100
AcDbLine
 10
290.459282
 20
17.458351
 30
0.0
 11
328.951864
 21
17.458351
 31
0.0
  0
LINE
  5
A3
100
AcDbEntity
  8
2
370
     9
  6
Continuous
 62
   134
100
AcDbLine
 10
318.398651
 20
1.5
 30
0.0
 11
318.398651
 21
17.458351
 31
0.0
  0
LINE
  5
A4
100
AcDbEntity
  8
2
370
     9
  6
Continuous
 62
   134
100
AcDbLine
 10
286.73901
 20
21.852626
 30
0.0
 11
409.608567
 21
21.852626
 31
0.0
  0
LINE
  5
A5
100
AcDbEntity
  8
2
370
     9
  6
Continuous
 62
   134
100
AcDbLine
 10
286.73901
 20
1.5
 30
0.0
 11
286.73901
 21
21.852626
 31
0.0
  0
LINE
  5
A6
100
AcDbEntity
  8
2
370
     9
  6
Continuous
 62
   134
100
AcDbLine
 10
286.73901
 20
11.299413
 30
0.0
 11
409.608567
 21
11.299413
 31
0.0
  0
LINE
  5
A7
100
AcDbEntity
  8
2
370
     9
  6
Continuous
 62
   134
100
AcDbLine
 10
286.73901
 20
21.852626
 30
0.0
 11
409.608567
 21
21.852626
 31
0.0
  0
LINE
  5
A8
100
AcDbEntity
  8
2
370
     9
  6
Continuous
 62
   134
100
AcDbLine
 10
286.73901
 20
1.5
 30
0.0
 11
286.73901
 21
21.852626
 31
0.0
  0
LINE
  5
A9
100
AcDbEntity
  8
2
370
     9
  6
Continuous
 62
   134
100
AcDbLine
 10
286.73901
 20
11.299413
 30
0.0
 11
409.608567
 21
11.299413
 31
0.0
  0
TEXT
  5
AA
100
AcDbEntity
  8
2
370
     9
  6
Continuous
 62
   134
100
AcDbText
 10
287.683573
 20
14.966237
 30
0.0
 40
2.261403
  1
PLOT DATE
 41
0.5
 11
287.683573
 21
14.966237
 31
0.0
100
AcDbText
 73
     1
  0
TEXT
  5
AB
100
AcDbEntity
  8
2
370
     9
  6
Continuous
 62
   134
100
AcDbText
 10
287.683573
 20
14.966237
 30
0.0
 40
2.261403
  1
PLOT DATE
 41
0.5
 11
287.683573
 21
14.966237
 31
0.0
100
AcDbText
 73
     1
  0
LINE
  5
AC
100
AcDbEntity
  8
2
370
     9
  6
Continuous
 62
   134
100
AcDbLine
 10
325.598658
 20
17.458351
 30
0.0
 11
328.951864
 21
17.458351
 31
0.0
  0
LINE
  5
AD
100
AcDbEntity
  8
2
370
     9
  6
Continuous
 62
   134
100
AcDbLine
 10
325.598658
 20
17.458351
 30
0.0
 11
328.951864
 21
17.458351
 31
0.0
  0
TEXT
  5
AE
100
AcDbEntity
  8
2
370
     9
  6
Continuous
 62
   134
100
AcDbText
 10
318.375771
 20
14.966237
 30
0.0
 40
2.261403
  1
SCALE
 41
0.5
 11
318.375771
 21
14.966237
 31
0.0
100
AcDbText
 73
     1
  0
LINE
  5
AF
100
AcDbEntity
  8
2
370
     9
  6
Continuous
 62
   134
100
AcDbLine
 10
324.185742
 20
14.723891
 30
0.0
 11
324.185742
 21
17.458351
 31
0.0
  0
LINE
  5
B0
100
AcDbEntity
  8
2
370
     9
  6
Continuous
 62
   134
100
AcDbLine
 10
324.185742
 20
14.723891
 30
0.0
 11
324.185742
 21
17.458351
 31
0.0
  0
ARC
  5
B1
100
AcDbEntity
  8
1
370
    30
  6
Continuous
 62
     7
100
AcDbCircle
 10
368.226154
 20
13.720373
 30
0.0
 40
1.011876
100
AcDbArc
 50
-43.519249
 51
-8.538429
  0
LINE
  5
B2
100
AcDbEntity
  8
1
370
    30
  6
Continuous
 62
     7
100
AcDbLine
 10
369.226815
 20
13.570137
 30
0.0
 11
369.437034
 21
14.761019
 31
0.0
  0
ARC
  5
B3
100
AcDbEntity
  8
1
370
    30
  6
Continuous
 62
     7
100
AcDbCircle
 10
369.295668
 20
15.623199
 30
0.0
 40
0.289055
100
AcDbArc
 50
169.859202
 51
-11.110248
  0
LINE
  5
B4
100
AcDbEntity
  8
1
370
    30
  6
Continuous
 62
     7
100
AcDbLine
 10
369.63298
 20
15.871343
 30
0.0
 11
369.579306
 21
15.567499
 31
0.0
  0
LINE
  5
B5
100
AcDbEntity
  8
1
370
    30
  6
Continuous
 62
     7
100
AcDbLine
 10
369.064673
 20
15.977506
 30
0.0
 11
369.010896
 21
15.672776
 31
0.0
  0
ARC
  5
B6
100
AcDbEntity
  8
1
370
    30
  6
Continuous
 62
     7
100
AcDbCircle
 10
369.34754
 20
15.917135
 30
0.0
 40
0.289063
100
AcDbArc
 50
-9.551259
 51
169.544378
  0
LINE
  5
B7
100
AcDbEntity
  8
1
370
    30
  6
Continuous
 62
     7
100
AcDbLine
 10
368.868481
 20
14.866283
 30
0.0
 11
368.655595
 21
13.659727
 31
0.0
  0
ARC
  5
B8
100
AcDbEntity
  8
1
370
    30
  6
Continuous
 62
     7
100
AcDbCircle
 10
369.153698
 20
14.818728
 30
0.0
 40
0.289154
100
AcDbArc
 50
-11.512414
 51
170.534098
  0
LINE
  5
B9
100
AcDbEntity
  8
1
370
    30
  6
Continuous
 62
     7
100
AcDbLine
 10
366.330632
 20
13.790398
 30
0.0
 11
366.69833
 21
15.875571
 31
0.0
  0
LINE
  5
BA
100
AcDbEntity
  8
1
370
    30
  6
Continuous
 62
     7
100
AcDbLine
 10
366.129004
 20
15.975958
 30
0.0
 11
365.760318
 21
13.885179
 31
0.0
  0
ARC
  5
BB
100
AcDbEntity
  8
1
370
    30
  6
Continuous
 62
     7
100
AcDbCircle
 10
366.412944
 20
15.921663
 30
0.0
 40
0.289084
100
AcDbArc
 50
-10.613556
 51
169.174517
  0
LINE
  5
BC
100
AcDbEntity
  8
1
370
    30
  6
Continuous
 62
     7
100
AcDbLine
 10
368.427662
 20
17.359649
 30
0.0
 11
368.356792
 21
16.957722
 31
0.0
  0
LINE
  5
BD
100
AcDbEntity
  8
1
370
    30
  6
Continuous
 62
     7
100
AcDbLine
 10
367.769765
 20
16.957722
 30
0.0
 11
367.861995
 21
17.480786
 31
0.0
  0
LINE
  5
BE
100
AcDbEntity
  8
1
370
    30
  6
Continuous
 62
     7
100
AcDbLine
 10
367.667829
 20
16.379613
 30
0.0
 11
367.183371
 21
13.632118
 31
0.0
  0
LINE
  5
BF
100
AcDbEntity
  8
1
370
    30
  6
Continuous
 62
     7
100
AcDbLine
 10
367.23749
 20
16.379613
 30
0.0
 11
367.667829
 21
16.379613
 31
0.0
  0
LINE
  5
C0
100
AcDbEntity
  8
1
370
    30
  6
Continuous
 62
     7
100
AcDbLine
 10
368.254856
 20
16.379613
 30
0.0
 11
367.798449
 21
13.791205
 31
0.0
  0
LINE
  5
C1
100
AcDbEntity
  8
1
370
    30
  6
Continuous
 62
     7
100
AcDbLine
 10
368.744189
 20
16.379613
 30
0.0
 11
368.254856
 21
16.379613
 31
0.0
  0
LINE
  5
C2
100
AcDbEntity
  8
1
370
    30
  6
Continuous
 62
     7
100
AcDbLine
 10
368.356792
 20
16.957722
 30
0.0
 11
368.747122
 21
16.957737
 31
0.0
  0
LINE
  5
C3
100
AcDbEntity
  8
1
370
    30
  6
Continuous
 62
     7
100
AcDbLine
 10
367.252238
 20
16.957724
 30
0.0
 11
367.769765
 21
16.957722
 31
0.0
  0
ARC
  5
C4
100
AcDbEntity
  8
1
370
    30
  6
Continuous
 62
     7
100
AcDbCircle
 10
368.747122
 20
16.668668
 30
0.0
 40
0.289069
100
AcDbArc
 50
-90.581407
 51
90.0
  0
ARC
  5
C5
100
AcDbEntity
  8
1
370
    30
  6
Continuous
 62
     7
100
AcDbCircle
 10
367.244866
 20
16.668715
 30
0.0
 40
0.289103
100
AcDbArc
 50
88.538668
 51
-90.203762
  0
ARC
  5
C6
100
AcDbEntity
  8
1
370
    30
  6
Continuous
 62
     7
100
AcDbCircle
 10
368.144829
 20
17.420218
 30
0.0
 40
0.289246
100
AcDbArc
 50
-12.519817
 51
167.912758
  0
ARC
  5
C7
100
AcDbEntity
  8
1
370
    30
  6
Continuous
 62
     7
100
AcDbCircle
 10
368.226221
 20
13.720322
 30
0.0
 40
1.011793
100
AcDbArc
 50
-136.494917
 51
-43.519748
  0
ARC
  5
C8
100
AcDbEntity
  8
1
370
    30
  6
Continuous
 62
     7
100
AcDbCircle
 10
366.758559
 20
13.720277
 30
0.0
 40
1.01171
100
AcDbArc
 50
170.026175
 51
-43.506039
  0
ARC
  5
C9
100
AcDbEntity
  8
1
370
    30
  6
Continuous
 62
     7
100
AcDbCircle
 10
366.758546
 20
13.720322
 30
0.0
 40
0.433614
100
AcDbArc
 50
169.695482
 51
-10.258881
  0
ARC
  5
CA
100
AcDbEntity
  8
1
370
    30
  6
Continuous
 62
     7
100
AcDbCircle
 10
368.226231
 20
13.72031
 30
0.0
 40
0.433617
100
AcDbArc
 50
169.409929
 51
-8.031328
  0
INSERT
  5
CF
100
AcDbEntity
  8
0
370
     9
  6
Continuous
 62
     7
100
AcDbBlockReference
  2
*G1
 10
0.0
 20
0.0
 30
0.0
  0
INSERT
  5
D4
100
AcDbEntity
  8
0
370
     9
  6
Continuous
 62
     7
100
AcDbBlockReference
  2
*G2
 10
0.0
 20
0.0
 30
0.0
  0
INSERT
  5
D9
100
AcDbEntity
  8
0
370
     9
  6
Continuous
 62
     7
100
AcDbBlockReference
  2
*G3
 10
0.0
 20
0.0
 30
0.0
  0
INSERT
  5
E1
100
AcDbEntity
  8
0
370
     9
  6
Continuous
 62
     7
100
AcDbBlockReference
  2
*G4
 10
0.0
 20
0.0
 30
0.0
  0
INSERT
  5
E9
100
AcDbEntity
  8
0
370
     9
  6
Continuous
 62
     7
100
AcDbBlockReference
  2
*G5
 10
0.0
 20
0.0
 30
0.0
  0
INSERT
  5
F1
100
AcDbEntity
  8
0
370
     9
  6
Continuous
 62
     7
100
AcDbBlockReference
  2
*G6
 10
0.0
 20
0.0
 30
0.0
  0
LINE
  5
F2
100
AcDbEntity
  8
1
370
     9
  6
Continuous
 62
     7
100
AcDbLine
 10
255.0
 20
194.5
 30
0.0
 11
255.0
 21
99.5
 31
0.0
  0
INSERT
  5
FA
100
AcDbEntity
  8
0
370
     9
  6
Continuous
 62
     7
100
AcDbBlockReference
  2
*G7
 10
0.0
 20
0.0
 30
0.0
  0
LINE
  5
FB
100
AcDbEntity
  8
1
370
     9
  6
Continuous
 62
     7
100
AcDbLine
 10
188.0
 20
195.0
 30
0.0
 11
184.0
 21
198.5
 31
0.0
  0
LINE
  5
FC
100
AcDbEntity
  8
1
370
     9
  6
Continuous
 62
     7
100
AcDbLine
 10
188.0
 20
99.0
 30
0.0
 11
184.0
 21
95.5
 31
0.0
  0
LINE
  5
FD
100
AcDbEntity
  8
1
370
     9
  6
Continuous
 62
     7
100
AcDbLine
 10
188.0
 20
99.0
 30
0.0
 11
188.0
 21
195.0
 31
0.0
  0
INSERT
  5
105
100
AcDbEntity
  8
0
370
     9
  6
Continuous
 62
     7
100
AcDbBlockReference
  2
*G8
 10
0.0
 20
0.0
 30
0.0
  0
INSERT
  5
10D
100
AcDbEntity
  8
0
370
     9
  6
Continuous
 62
     7
100
AcDbBlockReference
  2
*G9
 10
0.0
 20
0.0
 30
0.0
  0
INSERT
  5
115
100
AcDbEntity
  8
0
370
     9
  6
Continuous
 62
     7
100
AcDbBlockReference
  2
*G10
 10
0.0
 20
0.0
 30
0.0
  0
INSERT
  5
11D
100
AcDbEntity
  8
0
370
     9
  6
Continuous
 62
     7
100
AcDbBlockReference
  2
*G11
 10
0.0
 20
0.0
 30
0.0
  0
INSERT
  5
125
100
AcDbEntity
  8
0
370
     9
  6
Continuous
 62
     7
100
AcDbBlockReference
  2
*G12
 10
0.0
 20
0.0
 30
0.0
  0
INSERT
  5
12D
100
AcDbEntity
  8
0
370
     9
  6
Continuous
 62
     7
100
AcDbBlockReference
  2
*G13
 10
0.0
 20
0.0
 30
0.0
  0
LINE
  5
12E
100
AcDbEntity
  8
1
370
     9
  6
Continuous
 62
     7
100
AcDbLine
 10
279.0
 20
148.0
 30
0.0
 11
288.0
 21
148.0
 31
0.0
  0
LINE
  5
12F
100
AcDbEntity
  8
1
370
     9
  6
Continuous
 62
     7
100
AcDbLine
 10
279.0
 20
146.0
 30
0.0
 11
288.0
 21
146.0
 31
0.0
  0
LINE
  5
130
100
AcDbEntity
  8
1
370
     9
  6
Continuous
 62
     7
100
AcDbLine
 10
279.0
 20
103.2
 30
0.0
 11
288.0
 21
103.2
 31
0.0
  0
LINE
  5
131
100
AcDbEntity
  8
1
370
     9
  6
Continuous
 62
     7
100
AcDbLine
 10
279.0
 20
103.2
 30
0.0
 11
288.0
 21
103.2
 31
0.0
  0
LINE
  5
132
100
AcDbEntity
  8
1
370
     9
  6
Continuous
 62
     7
100
AcDbLine
 10
279.0
 20
103.6
 30
0.0
 11
288.0
 21
103.6
 31
0.0
  0
LINE
  5
133
100
AcDbEntity
  8
1
370
     9
  6
Continuous
 62
     7
100
AcDbLine
 10
279.0
 20
103.6
 30
0.0
 11
288.0
 21
103.6
 31
0.0
  0
LINE
  5
134
100
AcDbEntity
  8
1
370
     9
  6
Continuous
 62
     7
100
AcDbLine
 10
279.0
 20
104.0
 30
0.0
 11
288.0
 21
104.0
 31
0.0
  0
LINE
  5
135
100
AcDbEntity
  8
1
370
     9
  6
Continuous
 62
     7
100
AcDbLine
 10
279.0
 20
104.0
 30
0.0
 11
288.0
 21
104.0
 31
0.0
  0
LINE
  5
136
100
AcDbEntity
  8
1
370
     9
  6
Continuous
 62
     7
100
AcDbLine
 10
279.0
 20
104.4
 30
0.0
 11
288.0
 21
104.4
 31
0.0
  0
LINE
  5
137
100
AcDbEntity
  8
1
370
     9
  6
Continuous
 62
     7
100
AcDbLine
 10
279.0
 20
104.4
 30
0.0
 11
288.0
 21
104.4
 31
0.0
  0
LINE
  5
138
100
AcDbEntity
  8
1
370
     9
  6
Continuous
 62
     7
100
AcDbLine
 10
279.0
 20
104.8
 30
0.0
 11
288.0
 21
104.8
 31
0.0
  0
LINE
  5
139
100
AcDbEntity
  8
1
370
     9
  6
Continuous
 62
     7
100
AcDbLine
 10
279.0
 20
104.8
 30
0.0
 11
288.0
 21
104.8
 31
0.0
  0
LINE
  5
13A
100
AcDbEntity
  8
1
370
     9
  6
Continuous
 62
     7
100
AcDbLine
 10
279.0
 20
105.2
 30
0.0
 11
288.0
 21
105.2
 31
0.0
  0
LINE
  5
13B
100
AcDbEntity
  8
1
370
     9
  6
Continuous
 62
     7
100
AcDbLine
 10
279.0
 20
105.2
 30
0.0
 11
288.0
 21
105.2
 31
0.0
  0
LINE
  5
13C
100
AcDbEntity
  8
1
370
     9
  6
Continuous
 62
     7
100
AcDbLine
 10
279.0
 20
105.6
 30
0.0
 11
288.0
 21
105.6
 31
0.0
  0
LINE
  5
13D
100
AcDbEntity
  8
1
370
     9
  6
Continuous
 62
     7
100
AcDbLine
 10
279.0
 20
105.6
 30
0.0
 11
288.0
 21
105.6
 31
0.0
  0
LINE
  5
13E
100
AcDbEntity
  8
1
370
     9
  6
Continuous
 62
     7
100
AcDbLine
 10
279.0
 20
106.0
 30
0.0
 11
288.0
 21
106.0
 31
0.0
  0
LINE
  5
13F
100
AcDbEntity
  8
1
370
     9
  6
Continuous
 62
     7
100
AcDbLine
 10
279.0
 20
106.0
 30
0.0
 11
288.0
 21
106.0
 31
0.0
  0
LINE
  5
140
100
AcDbEntity
  8
1
370
     9
  6
Continuous
 62
     7
100
AcDbLine
 10
279.0
 20
106.4
 30
0.0
 11
288.0
 21
106.4
 31
0.0
  0
LINE
  5
141
100
AcDbEntity
  8
1
370
     9
  6
Continuous
 62
     7
100
AcDbLine
 10
279.0
 20
106.4
 30
0.0
 11
288.0
 21
106.4
 31
0.0
  0
LINE
  5
142
100
AcDbEntity
  8
1
370
     9
  6
Continuous
 62
     7
100
AcDbLine
 10
279.0
 20
106.8
 30
0.0
 11
288.0
 21
106.8
 31
0.0
  0
LINE
  5
143
100
AcDbEntity
  8
1
370
     9
  6
Continuous
 62
     7
100
AcDbLine
 10
279.0
 20
106.8
 30
0.0
 11
288.0
 21
106.8
 31
0.0
  0
LINE
  5
144
100
AcDbEntity
  8
1
370
     9
  6
Continuous
 62
     7
100
AcDbLine
 10
279.0
 20
107.2
 30
0.0
 11
288.0
 21
107.2
 31
0.0
  0
LINE
  5
145
100
AcDbEntity
  8
1
370
     9
  6
Continuous
 62
     7
100
AcDbLine
 10
279.0
 20
107.2
 30
0.0
 11
288.0
 21
107.2
 31
0.0
  0
LINE
  5
146
100
AcDbEntity
  8
1
370
     9
  6
Continuous
 62
     7
100
AcDbLine
 10
279.0
 20
107.6
 30
0.0
 11
288.0
 21
107.6
 31
0.0
  0
LINE
  5
147
100
AcDbEntity
  8
1
370
     9
  6
Continuous
 62
     7
100
AcDbLine
 10
279.0
 20
108.0
 30
0.0
 11
288.0
 21
108.0
 31
0.0
  0
LINE
  5
148
100
AcDbEntity
  8
1
370
     9
  6
Continuous
 62
     7
100
AcDbLine
 10
279.0
 20
108.5
 30
0.0
 11
288.0
 21
108.5
 31
0.0
  0
LINE
  5
149
100
AcDbEntity
  8
1
370
     9
  6
Continuous
 62
     7
100
AcDbLine
 10
279.0
 20
109.0
 30
0.0
 11
288.0
 21
109.0
 31
0.0
  0
LINE
  5
14A
100
AcDbEntity
  8
1
370
     9
  6
Continuous
 62
     7
100
AcDbLine
 10
279.0
 20
109.6
 30
0.0
 11
288.0
 21
109.6
 31
0.0
  0
LINE
  5
14B
100
AcDbEntity
  8
1
370
     9
  6
Continuous
 62
     7
100
AcDbLine
 10
279.0
 20
110.2
 30
0.0
 11
288.0
 21
110.2
 31
0.0
  0
LINE
  5
14C
100
AcDbEntity
  8
1
370
     9
  6
Continuous
 62
     7
100
AcDbLine
 10
279.0
 20
110.9
 30
0.0
 11
288.0
 21
110.9
 31
0.0
  0
LINE
  5
14D
100
AcDbEntity
  8
1
370
     9
  6
Continuous
 62
     7
100
AcDbLine
 10
279.0
 20
111.6
 30
0.0
 11
288.0
 21
111.6
 31
0.0
  0
LINE
  5
14E
100
AcDbEntity
  8
1
370
     9
  6
Continuous
 62
     7
100
AcDbLine
 10
279.0
 20
112.4
 30
0.0
 11
288.0
 21
112.4
 31
0.0
  0
LINE
  5
14F
100
AcDbEntity
  8
1
370
     9
  6
Continuous
 62
     7
100
AcDbLine
 10
279.0
 20
113.2
 30
0.0
 11
288.0
 21
113.2
 31
0.0
  0
LINE
  5
150
100
AcDbEntity
  8
1
370
     9
  6
Continuous
 62
     7
100
AcDbLine
 10
279.0
 20
114.1
 30
0.0
 11
288.0
 21
114.1
 31
0.0
  0
LINE
  5
151
100
AcDbEntity
  8
1
370
     9
  6
Continuous
 62
     7
100
AcDbLine
 10
279.0
 20
115.0
 30
0.0
 11
288.0
 21
115.0
 31
0.0
  0
LINE
  5
152
100
AcDbEntity
  8
1
370
     9
  6
Continuous
 62
     7
100
AcDbLine
 10
279.0
 20
116.0
 30
0.0
 11
288.0
 21
116.0
 31
0.0
  0
LINE
  5
153
100
AcDbEntity
  8
1
370
     9
  6
Continuous
 62
     7
100
AcDbLine
 10
279.0
 20
117.0
 30
0.0
 11
288.0
 21
117.0
 31
0.0
  0
LINE
  5
154
100
AcDbEntity
  8
1
370
     9
  6
Continuous
 62
     7
100
AcDbLine
 10
279.0
 20
118.1
 30
0.0
 11
288.0
 21
118.1
 31
0.0
  0
LINE
  5
155
100
AcDbEntity
  8
1
370
     9
  6
Continuous
 62
     7
100
AcDbLine
 10
279.0
 20
119.2
 30
0.0
 11
288.0
 21
119.2
 31
0.0
  0
LINE
  5
156
100
AcDbEntity
  8
1
370
     9
  6
Continuous
 62
     7
100
AcDbLine
 10
279.0
 20
120.4
 30
0.0
 11
288.0
 21
120.4
 31
0.0
  0
LINE
  5
157
100
AcDbEntity
  8
1
370
     9
  6
Continuous
 62
     7
100
AcDbLine
 10
279.0
 20
121.6
 30
0.0
 11
288.0
 21
121.6
 31
0.0
  0
LINE
  5
158
100
AcDbEntity
  8
1
370
     9
  6
Continuous
 62
     7
100
AcDbLine
 10
279.0
 20
122.9
 30
0.0
 11
288.0
 21
122.9
 31
0.0
  0
LINE
  5
159
100
AcDbEntity
  8
1
370
     9
  6
Continuous
 62
     7
100
AcDbLine
 10
279.0
 20
124.2
 30
0.0
 11
288.0
 21
124.2
 31
0.0
  0
LINE
  5
15A
100
AcDbEntity
  8
1
370
     9
  6
Continuous
 62
     7
100
AcDbLine
 10
279.0
 20
125.6
 30
0.0
 11
288.0
 21
125.6
 31
0.0
  0
LINE
  5
15B
100
AcDbEntity
  8
1
370
     9
  6
Continuous
 62
     7
100
AcDbLine
 10
279.0
 20
127.0
 30
0.0
 11
288.0
 21
127.0
 31
0.0
  0
LINE
  5
15C
100
AcDbEntity
  8
1
370
     9
  6
Continuous
 62
     7
100
AcDbLine
 10
279.0
 20
128.5
 30
0.0
 11
288.0
 21
128.5
 31
0.0
  0
LINE
  5
15D
100
AcDbEntity
  8
1
370
     9
  6
Continuous
 62
     7
100
AcDbLine
 10
279.0
 20
130.0
 30
0.0
 11
288.0
 21
130.0
 31
0.0
  0
LINE
  5
15E
100
AcDbEntity
  8
1
370
     9
  6
Continuous
 62
     7
100
AcDbLine
 10
279.0
 20
131.6
 30
0.0
 11
288.0
 21
131.6
 31
0.0
  0
LINE
  5
15F
100
AcDbEntity
  8
1
370
     9
  6
Continuous
 62
     7
100
AcDbLine
 10
279.0
 20
133.2
 30
0.0
 11
288.0
 21
133.2
 31
0.0
  0
LINE
  5
160
100
AcDbEntity
  8
1
370
     9
  6
Continuous
 62
     7
100
AcDbLine
 10
279.0
 20
134.9
 30
0.0
 11
288.0
 21
134.9
 31
0.0
  0
LINE
  5
161
100
AcDbEntity
  8
1
370
     9
  6
Continuous
 62
     7
100
AcDbLine
 10
279.0
 20
136.6
 30
0.0
 11
288.0
 21
136.6
 31
0.0
  0
LINE
  5
162
100
AcDbEntity
  8
1
370
     9
  6
Continuous
 62
     7
100
AcDbLine
 10
279.0
 20
138.4
 30
0.0
 11
288.0
 21
138.4
 31
0.0
  0
LINE
  5
163
100
AcDbEntity
  8
1
370
     9
  6
Continuous
 62
     7
100
AcDbLine
 10
279.0
 20
140.2
 30
0.0
 11
288.0
 21
140.2
 31
0.0
  0
LINE
  5
164
100
AcDbEntity
  8
1
370
     9
  6
Continuous
 62
     7
100
AcDbLine
 10
279.0
 20
142.1
 30
0.0
 11
288.0
 21
142.1
 31
0.0
  0
LINE
  5
165
100
AcDbEntity
  8
1
370
     9
  6
Continuous
 62
     7
100
AcDbLine
 10
279.0
 20
144.0
 30
0.0
 11
288.0
 21
144.0
 31
0.0
  0
LINE
  5
166
100
AcDbEntity
  8
1
370
     9
  6
Continuous
 62
     7
100
AcDbLine
 10
279.0
 20
146.0
 30
0.0
 11
288.0
 21
146.0
 31
0.0
  0
LINE
  5
167
100
AcDbEntity
  8
1
370
     9
  6
Continuous
 62
     7
100
AcDbLine
 10
279.0
 20
190.8
 30
0.0
 11
288.0
 21
190.8
 31
0.0
  0
LINE
  5
168
100
AcDbEntity
  8
1
370
     9
  6
Continuous
 62
     7
100
AcDbLine
 10
279.0
 20
190.8
 30
0.0
 11
288.0
 21
190.8
 31
0.0
  0
LINE
  5
169
100
AcDbEntity
  8
1
370
     9
  6
Continuous
 62
     7
100
AcDbLine
 10
279.0
 20
190.4
 30
0.0
 11
288.0
 21
190.4
 31
0.0
  0
LINE
  5
16A
100
AcDbEntity
  8
1
370
     9
  6
Continuous
 62
     7
100
AcDbLine
 10
279.0
 20
190.4
 30
0.0
 11
288.0
 21
190.4
 31
0.0
  0
LINE
  5
16B
100
AcDbEntity
  8
1
370
     9
  6
Continuous
 62
     7
100
AcDbLine
 10
279.0
 20
190.0
 30
0.0
 11
288.0
 21
190.0
 31
0.0
  0
LINE
  5
16C
100
AcDbEntity
  8
1
370
     9
  6
Continuous
 62
     7
100
AcDbLine
 10
279.0
 20
190.0
 30
0.0
 11
288.0
 21
190.0
 31
0.0
  0
LINE
  5
16D
100
AcDbEntity
  8
1
370
     9
  6
Continuous
 62
     7
100
AcDbLine
 10
279.0
 20
189.6
 30
0.0
 11
288.0
 21
189.6
 31
0.0
  0
LINE
  5
16E
100
AcDbEntity
  8
1
370
     9
  6
Continuous
 62
     7
100
AcDbLine
 10
279.0
 20
189.6
 30
0.0
 11
288.0
 21
189.6
 31
0.0
  0
LINE
  5
16F
100
AcDbEntity
  8
1
370
     9
  6
Continuous
 62
     7
100
AcDbLine
 10
279.0
 20
189.2
 30
0.0
 11
288.0
 21
189.2
 31
0.0
  0
LINE
  5
170
100
AcDbEntity
  8
1
370
     9
  6
Continuous
 62
     7
100
AcDbLine
 10
279.0
 20
189.2
 30
0.0
 11
288.0
 21
189.2
 31
0.0
  0
LINE
  5
171
100
AcDbEntity
  8
1
370
     9
  6
Continuous
 62
     7
100
AcDbLine
 10
279.0
 20
188.8
 30
0.0
 11
288.0
 21
188.8
 31
0.0
  0
LINE
  5
172
100
AcDbEntity
  8
1
370
     9
  6
Continuous
 62
     7
100
AcDbLine
 10
279.0
 20
188.8
 30
0.0
 11
288.0
 21
188.8
 31
0.0
  0
LINE
  5
173
100
AcDbEntity
  8
1
370
     9
  6
Continuous
 62
     7
100
AcDbLine
 10
279.0
 20
188.4
 30
0.0
 11
288.0
 21
188.4
 31
0.0
  0
LINE
  5
174
100
AcDbEntity
  8
1
370
     9
  6
Continuous
 62
     7
100
AcDbLine
 10
279.0
 20
188.4
 30
0.0
 11
288.0
 21
188.4
 31
0.0
  0
LINE
  5
175
100
AcDbEntity
  8
1
370
     9
  6
Continuous
 62
     7
100
AcDbLine
 10
279.0
 20
188.0
 30
0.0
 11
288.0
 21
188.0
 31
0.0
  0
LINE
  5
176
100
AcDbEntity
  8
1
370
     9
  6
Continuous
 62
     7
100
AcDbLine
 10
279.0
 20
188.0
 30
0.0
 11
288.0
 21
188.0
 31
0.0
  0
LINE
  5
177
100
AcDbEntity
  8
1
370
     9
  6
Continuous
 62
     7
100
AcDbLine
 10
279.0
 20
187.6
 30
0.0
 11
288.0
 21
187.6
 31
0.0
  0
LINE
  5
178
100
AcDbEntity
  8
1
370
     9
  6
Continuous
 62
     7
100
AcDbLine
 10
279.0
 20
187.6
 30
0.0
 11
288.0
 21
187.6
 31
0.0
  0
LINE
  5
179
100
AcDbEntity
  8
1
370
     9
  6
Continuous
 62
     7
100
AcDbLine
 10
279.0
 20
187.2
 30
0.0
 11
288.0
 21
187.2
 31
0.0
  0
LINE
  5
17A
100
AcDbEntity
  8
1
370
     9
  6
Continuous
 62
     7
100
AcDbLine
 10
279.0
 20
187.2
 30
0.0
 11
288.0
 21
187.2
 31
0.0
  0
LINE
  5
17B
100
AcDbEntity
  8
1
370
     9
  6
Continuous
 62
     7
100
AcDbLine
 10
279.0
 20
186.8
 30
0.0
 11
288.0
 21
186.8
 31
0.0
  0
LINE
  5
17C
100
AcDbEntity
  8
1
370
     9
  6
Continuous
 62
     7
100
AcDbLine
 10
279.0
 20
186.8
 30
0.0
 11
288.0
 21
186.8
 31
0.0
  0
LINE
  5
17D
100
AcDbEntity
  8
1
370
     9
  6
Continuous
 62
     7
100
AcDbLine
 10
279.0
 20
186.4
 30
0.0
 11
288.0
 21
186.4
 31
0.0
  0
LINE
  5
17E
100
AcDbEntity
  8
1
370
     9
  6
Continuous
 62
     7
100
AcDbLine
 10
279.0
 20
186.0
 30
0.0
 11
288.0
 21
186.0
 31
0.0
  0
LINE
  5
17F
100
AcDbEntity
  8
1
370
     9
  6
Continuous
 62
     7
100
AcDbLine
 10
279.0
 20
185.5
 30
0.0
 11
288.0
 21
185.5
 31
0.0
  0
LINE
  5
180
100
AcDbEntity
  8
1
370
     9
  6
Continuous
 62
     7
100
AcDbLine
 10
279.0
 20
185.0
 30
0.0
 11
288.0
 21
185.0
 31
0.0
  0
LINE
  5
181
100
AcDbEntity
  8
1
370
     9
  6
Continuous
 62
     7
100
AcDbLine
 10
279.0
 20
184.4
 30
0.0
 11
288.0
 21
184.4
 31
0.0
  0
LINE
  5
182
100
AcDbEntity
  8
1
370
     9
  6
Continuous
 62
     7
100
AcDbLine
 10
279.0
 20
183.8
 30
0.0
 11
288.0
 21
183.8
 31
0.0
  0
LINE
  5
183
100
AcDbEntity
  8
1
370
     9
  6
Continuous
 62
     7
100
AcDbLine
 10
279.0
 20
183.1
 30
0.0
 11
288.0
 21
183.1
 31
0.0
  0
LINE
  5
184
100
AcDbEntity
  8
1
370
     9
  6
Continuous
 62
     7
100
AcDbLine
 10
279.0
 20
182.4
 30
0.0
 11
288.0
 21
182.4
 31
0.0
  0
LINE
  5
185
100
AcDbEntity
  8
1
370
     9
  6
Continuous
 62
     7
100
AcDbLine
 10
279.0
 20
181.6
 30
0.0
 11
288.0
 21
181.6
 31
0.0
  0
LINE
  5
186
100
AcDbEntity
  8
1
370
     9
  6
Continuous
 62
     7
100
AcDbLine
 10
279.0
 20
180.8
 30
0.0
 11
288.0
 21
180.8
 31
0.0
  0
LINE
  5
187
100
AcDbEntity
  8
1
370
     9
  6
Continuous
 62
     7
100
AcDbLine
 10
279.0
 20
179.9
 30
0.0
 11
288.0
 21
179.9
 31
0.0
  0
LINE
  5
188
100
AcDbEntity
  8
1
370
     9
  6
Continuous
 62
     7
100
AcDbLine
 10
279.0
 20
179.0
 30
0.0
 11
288.0
 21
179.0
 31
0.0
  0
LINE
  5
189
100
AcDbEntity
  8
1
370
     9
  6
Continuous
 62
     7
100
AcDbLine
 10
279.0
 20
178.0
 30
0.0
 11
288.0
 21
178.0
 31
0.0
  0
LINE
  5
18A
100
AcDbEntity
  8
1
370
     9
  6
Continuous
 62
     7
100
AcDbLine
 10
279.0
 20
177.0
 30
0.0
 11
288.0
 21
177.0
 31
0.0
  0
LINE
  5
18B
100
AcDbEntity
  8
1
370
     9
  6
Continuous
 62
     7
100
AcDbLine
 10
279.0
 20
175.9
 30
0.0
 11
288.0
 21
175.9
 31
0.0
  0
LINE
  5
18C
100
AcDbEntity
  8
1
370
     9
  6
Continuous
 62
     7
100
AcDbLine
 10
279.0
 20
174.8
 30
0.0
 11
288.0
 21
174.8
 31
0.0
  0
LINE
  5
18D
100
AcDbEntity
  8
1
370
     9
  6
Continuous
 62
     7
100
AcDbLine
 10
279.0
 20
173.6
 30
0.0
 11
288.0
 21
173.6
 31
0.0
  0
LINE
  5
18E
100
AcDbEntity
  8
1
370
     9
  6
Continuous
 62
     7
100
AcDbLine
 10
279.0
 20
172.4
 30
0.0
 11
288.0
 21
172.4
 31
0.0
  0
LINE
  5
18F
100
AcDbEntity
  8
1
370
     9
  6
Continuous
 62
     7
100
AcDbLine
 10
279.0
 20
171.1
 30
0.0
 11
288.0
 21
171.1
 31
0.0
  0
LINE
  5
190
100
AcDbEntity
  8
1
370
     9
  6
Continuous
 62
     7
100
AcDbLine
 10
279.0
 20
169.8
 30
0.0
 11
288.0
 21
169.8
 31
0.0
  0
LINE
  5
191
100
AcDbEntity
  8
1
370
     9
  6
Continuous
 62
     7
100
AcDbLine
 10
279.0
 20
168.4
 30
0.0
 11
288.0
 21
168.4
 31
0.0
  0
LINE
  5
192
100
AcDbEntity
  8
1
370
     9
  6
Continuous
 62
     7
100
AcDbLine
 10
279.0
 20
167.0
 30
0.0
 11
288.0
 21
167.0
 31
0.0
  0
LINE
  5
193
100
AcDbEntity
  8
1
370
     9
  6
Continuous
 62
     7
100
AcDbLine
 10
279.0
 20
165.5
 30
0.0
 11
288.0
 21
165.5
 31
0.0
  0
LINE
  5
194
100
AcDbEntity
  8
1
370
     9
  6
Continuous
 62
     7
100
AcDbLine
 10
279.0
 20
164.0
 30
0.0
 11
288.0
 21
164.0
 31
0.0
  0
LINE
  5
195
100
AcDbEntity
  8
1
370
     9
  6
Continuous
 62
     7
100
AcDbLine
 10
279.0
 20
162.4
 30
0.0
 11
288.0
 21
162.4
 31
0.0
  0
LINE
  5
196
100
AcDbEntity
  8
1
370
     9
  6
Continuous
 62
     7
100
AcDbLine
 10
279.0
 20
160.8
 30
0.0
 11
288.0
 21
160.8
 31
0.0
  0
LINE
  5
197
100
AcDbEntity
  8
1
370
     9
  6
Continuous
 62
     7
100
AcDbLine
 10
279.0
 20
159.1
 30
0.0
 11
288.0
 21
159.1
 31
0.0
  0
LINE
  5
198
100
AcDbEntity
  8
1
370
     9
  6
Continuous
 62
     7
100
AcDbLine
 10
279.0
 20
157.4
 30
0.0
 11
288.0
 21
157.4
 31
0.0
  0
LINE
  5
199
100
AcDbEntity
  8
1
370
     9
  6
Continuous
 62
     7
100
AcDbLine
 10
279.0
 20
155.6
 30
0.0
 11
288.0
 21
155.6
 31
0.0
  0
LINE
  5
19A
100
AcDbEntity
  8
1
370
     9
  6
Continuous
 62
     7
100
AcDbLine
 10
279.0
 20
153.8
 30
0.0
 11
288.0
 21
153.8
 31
0.0
  0
LINE
  5
19B
100
AcDbEntity
  8
1
370
     9
  6
Continuous
 62
     7
100
AcDbLine
 10
279.0
 20
151.9
 30
0.0
 11
288.0
 21
151.9
 31
0.0
  0
LINE
  5
19C
100
AcDbEntity
  8
1
370
     9
  6
Continuous
 62
     7
100
AcDbLine
 10
279.0
 20
150.0
 30
0.0
 11
288.0
 21
150.0
 31
0.0
  0
LINE
  5
19D
100
AcDbEntity
  8
1
370
     9
  6
Continuous
 62
     7
100
AcDbLine
 10
294.0
 20
148.0
 30
0.0
 11
297.0
 21
148.0
 31
0.0
  0
LINE
  5
19E
100
AcDbEntity
  8
1
370
     9
  6
Continuous
 62
     7
100
AcDbLine
 10
294.0
 20
146.0
 30
0.0
 11
297.0
 21
146.0
 31
0.0
  0
LINE
  5
19F
100
AcDbEntity
  8
1
370
     9
  6
Continuous
 62
     7
100
AcDbLine
 10
294.0
 20
103.2
 30
0.0
 11
297.0
 21
103.2
 31
0.0
  0
LINE
  5
1A0
100
AcDbEntity
  8
1
370
     9
  6
Continuous
 62
     7
100
AcDbLine
 10
294.0
 20
103.2
 30
0.0
 11
297.0
 21
103.2
 31
0.0
  0
LINE
  5
1A1
100
AcDbEntity
  8
1
370
     9
  6
Continuous
 62
     7
100
AcDbLine
 10
294.0
 20
103.6
 30
0.0
 11
297.0
 21
103.6
 31
0.0
  0
LINE
  5
1A2
100
AcDbEntity
  8
1
370
     9
  6
Continuous
 62
     7
100
AcDbLine
 10
294.0
 20
103.6
 30
0.0
 11
297.0
 21
103.6
 31
0.0
  0
LINE
  5
1A3
100
AcDbEntity
  8
1
370
     9
  6
Continuous
 62
     7
100
AcDbLine
 10
294.0
 20
104.0
 30
0.0
 11
297.0
 21
104.0
 31
0.0
  0
LINE
  5
1A4
100
AcDbEntity
  8
1
370
     9
  6
Continuous
 62
     7
100
AcDbLine
 10
294.0
 20
104.0
 30
0.0
 11
297.0
 21
104.0
 31
0.0
  0
LINE
  5
1A5
100
AcDbEntity
  8
1
370
     9
  6
Continuous
 62
     7
100
AcDbLine
 10
294.0
 20
104.4
 30
0.0
 11
297.0
 21
104.4
 31
0.0
  0
LINE
  5
1A6
100
AcDbEntity
  8
1
370
     9
  6
Continuous
 62
     7
100
AcDbLine
 10
294.0
 20
104.4
 30
0.0
 11
297.0
 21
104.4
 31
0.0
  0
LINE
  5
1A7
100
AcDbEntity
  8
1
370
     9
  6
Continuous
 62
     7
100
AcDbLine
 10
294.0
 20
104.8
 30
0.0
 11
297.0
 21
104.8
 31
0.0
  0
LINE
  5
1A8
100
AcDbEntity
  8
1
370
     9
  6
Continuous
 62
     7
100
AcDbLine
 10
294.0
 20
104.8
 30
0.0
 11
297.0
 21
104.8
 31
0.0
  0
LINE
  5
1A9
100
AcDbEntity
  8
1
370
     9
  6
Continuous
 62
     7
100
AcDbLine
 10
294.0
 20
105.2
 30
0.0
 11
297.0
 21
105.2
 31
0.0
  0
LINE
  5
1AA
100
AcDbEntity
  8
1
370
     9
  6
Continuous
 62
     7
100
AcDbLine
 10
294.0
 20
105.2
 30
0.0
 11
297.0
 21
105.2
 31
0.0
  0
LINE
  5
1AB
100
AcDbEntity
  8
1
370
     9
  6
Continuous
 62
     7
100
AcDbLine
 10
294.0
 20
105.6
 30
0.0
 11
297.0
 21
105.6
 31
0.0
  0
LINE
  5
1AC
100
AcDbEntity
  8
1
370
     9
  6
Continuous
 62
     7
100
AcDbLine
 10
294.0
 20
105.6
 30
0.0
 11
297.0
 21
105.6
 31
0.0
  0
LINE
  5
1AD
100
AcDbEntity
  8
1
370
     9
  6
Continuous
 62
     7
100
AcDbLine
 10
294.0
 20
106.0
 30
0.0
 11
297.0
 21
106.0
 31
0.0
  0
LINE
  5
1AE
100
AcDbEntity
  8
1
370
     9
  6
Continuous
 62
     7
100
AcDbLine
 10
294.0
 20
106.0
 30
0.0
 11
297.0
 21
106.0
 31
0.0
  0
LINE
  5
1AF
100
AcDbEntity
  8
1
370
     9
  6
Continuous
 62
     7
100
AcDbLine
 10
294.0
 20
106.4
 30
0.0
 11
297.0
 21
106.4
 31
0.0
  0
LINE
  5
1B0
100
AcDbEntity
  8
1
370
     9
  6
Continuous
 62
     7
100
AcDbLine
 10
294.0
 20
106.4
 30
0.0
 11
297.0
 21
106.4
 31
0.0
  0
LINE
  5
1B1
100
AcDbEntity
  8
1
370
     9
  6
Continuous
 62
     7
100
AcDbLine
 10
294.0
 20
106.8
 30
0.0
 11
297.0
 21
106.8
 31
0.0
  0
LINE
  5
1B2
100
AcDbEntity
  8
1
370
     9
  6
Continuous
 62
     7
100
AcDbLine
 10
294.0
 20
106.8
 30
0.0
 11
297.0
 21
106.8
 31
0.0
  0
LINE
  5
1B3
100
AcDbEntity
  8
1
370
     9
  6
Continuous
 62
     7
100
AcDbLine
 10
294.0
 20
107.2
 30
0.0
 11
297.0
 21
107.2
 31
0.0
  0
LINE
  5
1B4
100
AcDbEntity
  8
1
370
     9
  6
Continuous
 62
     7
100
AcDbLine
 10
294.0
 20
107.2
 30
0.0
 11
297.0
 21
107.2
 31
0.0
  0
LINE
  5
1B5
100
AcDbEntity
  8
1
370
     9
  6
Continuous
 62
     7
100
AcDbLine
 10
294.0
 20
107.6
 30
0.0
 11
297.0
 21
107.6
 31
0.0
  0
LINE
  5
1B6
100
AcDbEntity
  8
1
370
     9
  6
Continuous
 62
     7
100
AcDbLine
 10
294.0
 20
108.0
 30
0.0
 11
297.0
 21
108.0
 31
0.0
  0
LINE
  5
1B7
100
AcDbEntity
  8
1
370
     9
  6
Continuous
 62
     7
100
AcDbLine
 10
294.0
 20
108.5
 30
0.0
 11
297.0
 21
108.5
 31
0.0
  0
LINE
  5
1B8
100
AcDbEntity
  8
1
370
     9
  6
Continuous
 62
     7
100
AcDbLine
 10
294.0
 20
109.0
 30
0.0
 11
297.0
 21
109.0
 31
0.0
  0
LINE
  5
1B9
100
AcDbEntity
  8
1
370
     9
  6
Continuous
 62
     7
100
AcDbLine
 10
294.0
 20
109.6
 30
0.0
 11
297.0
 21
109.6
 31
0.0
  0
LINE
  5
1BA
100
AcDbEntity
  8
1
370
     9
  6
Continuous
 62
     7
100
AcDbLine
 10
294.0
 20
110.2
 30
0.0
 11
297.0
 21
110.2
 31
0.0
  0
LINE
  5
1BB
100
AcDbEntity
  8
1
370
     9
  6
Continuous
 62
     7
100
AcDbLine
 10
294.0
 20
110.9
 30
0.0
 11
297.0
 21
110.9
 31
0.0
  0
LINE
  5
1BC
100
AcDbEntity
  8
1
370
     9
  6
Continuous
 62
     7
100
AcDbLine
 10
294.0
 20
111.6
 30
0.0
 11
297.0
 21
111.6
 31
0.0
  0
LINE
  5
1BD
100
AcDbEntity
  8
1
370
     9
  6
Continuous
 62
     7
100
AcDbLine
 10
294.0
 20
112.4
 30
0.0
 11
297.0
 21
112.4
 31
0.0
  0
LINE
  5
1BE
100
AcDbEntity
  8
1
370
     9
  6
Continuous
 62
     7
100
AcDbLine
 10
294.0
 20
113.2
 30
0.0
 11
297.0
 21
113.2
 31
0.0
  0
LINE
  5
1BF
100
AcDbEntity
  8
1
370
     9
  6
Continuous
 62
     7
100
AcDbLine
 10
294.0
 20
114.1
 30
0.0
 11
297.0
 21
114.1
 31
0.0
  0
LINE
  5
1C0
100
AcDbEntity
  8
1
370
     9
  6
Continuous
 62
     7
100
AcDbLine
 10
294.0
 20
115.0
 30
0.0
 11
297.0
 21
115.0
 31
0.0
  0
LINE
  5
1C1
100
AcDbEntity
  8
1
370
     9
  6
Continuous
 62
     7
100
AcDbLine
 10
294.0
 20
116.0
 30
0.0
 11
297.0
 21
116.0
 31
0.0
  0
LINE
  5
1C2
100
AcDbEntity
  8
1
370
     9
  6
Continuous
 62
     7
100
AcDbLine
 10
294.0
 20
117.0
 30
0.0
 11
297.0
 21
117.0
 31
0.0
  0
LINE
  5
1C3
100
AcDbEntity
  8
1
370
     9
  6
Continuous
 62
     7
100
AcDbLine
 10
294.0
 20
118.1
 30
0.0
 11
297.0
 21
118.1
 31
0.0
  0
LINE
  5
1C4
100
AcDbEntity
  8
1
370
     9
  6
Continuous
 62
     7
100
AcDbLine
 10
294.0
 20
119.2
 30
0.0
 11
297.0
 21
119.2
 31
0.0
  0
LINE
  5
1C5
100
AcDbEntity
  8
1
370
     9
  6
Continuous
 62
     7
100
AcDbLine
 10
294.0
 20
120.4
 30
0.0
 11
297.0
 21
120.4
 31
0.0
  0
LINE
  5
1C6
100
AcDbEntity
  8
1
370
     9
  6
Continuous
 62
     7
100
AcDbLine
 10
294.0
 20
121.6
 30
0.0
 11
297.0
 21
121.6
 31
0.0
  0
LINE
  5
1C7
100
AcDbEntity
  8
1
370
     9
  6
Continuous
 62
     7
100
AcDbLine
 10
294.0
 20
122.9
 30
0.0
 11
297.0
 21
122.9
 31
0.0
  0
LINE
  5
1C8
100
AcDbEntity
  8
1
370
     9
  6
Continuous
 62
     7
100
AcDbLine
 10
294.0
 20
124.2
 30
0.0
 11
297.0
 21
124.2
 31
0.0
  0
LINE
  5
1C9
100
AcDbEntity
  8
1
370
     9
  6
Continuous
 62
     7
100
AcDbLine
 10
294.0
 20
125.6
 30
0.0
 11
297.0
 21
125.6
 31
0.0
  0
LINE
  5
1CA
100
AcDbEntity
  8
1
370
     9
  6
Continuous
 62
     7
100
AcDbLine
 10
294.0
 20
127.0
 30
0.0
 11
297.0
 21
127.0
 31
0.0
  0
LINE
  5
1CB
100
AcDbEntity
  8
1
370
     9
  6
Continuous
 62
     7
100
AcDbLine
 10
294.0
 20
128.5
 30
0.0
 11
297.0
 21
128.5
 31
0.0
  0
LINE
  5
1CC
100
AcDbEntity
  8
1
370
     9
  6
Continuous
 62
     7
100
AcDbLine
 10
294.0
 20
130.0
 30
0.0
 11
297.0
 21
130.0
 31
0.0
  0
LINE
  5
1CD
100
AcDbEntity
  8
1
370
     9
  6
Continuous
 62
     7
100
AcDbLine
 10
294.0
 20
131.6
 30
0.0
 11
297.0
 21
131.6
 31
0.0
  0
LINE
  5
1CE
100
AcDbEntity
  8
1
370
     9
  6
Continuous
 62
     7
100
AcDbLine
 10
294.0
 20
133.2
 30
0.0
 11
297.0
 21
133.2
 31
0.0
  0
LINE
  5
1CF
100
AcDbEntity
  8
1
370
     9
  6
Continuous
 62
     7
100
AcDbLine
 10
294.0
 20
134.9
 30
0.0
 11
297.0
 21
134.9
 31
0.0
  0
LINE
  5
1D0
100
AcDbEntity
  8
1
370
     9
  6
Continuous
 62
     7
100
AcDbLine
 10
294.0
 20
136.6
 30
0.0
 11
297.0
 21
136.6
 31
0.0
  0
LINE
  5
1D1
100
AcDbEntity
  8
1
370
     9
  6
Continuous
 62
     7
100
AcDbLine
 10
294.0
 20
138.4
 30
0.0
 11
297.0
 21
138.4
 31
0.0
  0
LINE
  5
1D2
100
AcDbEntity
  8
1
370
     9
  6
Continuous
 62
     7
100
AcDbLine
 10
294.0
 20
140.2
 30
0.0
 11
297.0
 21
140.2
 31
0.0
  0
LINE
  5
1D3
100
AcDbEntity
  8
1
370
     9
  6
Continuous
 62
     7
100
AcDbLine
 10
294.0
 20
142.1
 30
0.0
 11
297.0
 21
142.1
 31
0.0
  0
LINE
  5
1D4
100
AcDbEntity
  8
1
370
     9
  6
Continuous
 62
     7
100
AcDbLine
 10
294.0
 20
144.0
 30
0.0
 11
297.0
 21
144.0
 31
0.0
  0
LINE
  5
1D5
100
AcDbEntity
  8
1
370
     9
  6
Continuous
 62
     7
100
AcDbLine
 10
294.0
 20
146.0
 30
0.0
 11
297.0
 21
146.0
 31
0.0
  0
LINE
  5
1D6
100
AcDbEntity
  8
1
370
     9
  6
Continuous
 62
     7
100
AcDbLine
 10
294.0
 20
190.8
 30
0.0
 11
297.0
 21
190.8
 31
0.0
  0
LINE
  5
1D7
100
AcDbEntity
  8
1
370
     9
  6
Continuous
 62
     7
100
AcDbLine
 10
294.0
 20
190.8
 30
0.0
 11
297.0
 21
190.8
 31
0.0
  0
LINE
  5
1D8
100
AcDbEntity
  8
1
370
     9
  6
Continuous
 62
     7
100
AcDbLine
 10
294.0
 20
190.4
 30
0.0
 11
297.0
 21
190.4
 31
0.0
  0
LINE
  5
1D9
100
AcDbEntity
  8
1
370
     9
  6
Continuous
 62
     7
100
AcDbLine
 10
294.0
 20
190.4
 30
0.0
 11
297.0
 21
190.4
 31
0.0
  0
LINE
  5
1DA
100
AcDbEntity
  8
1
370
     9
  6
Continuous
 62
     7
100
AcDbLine
 10
294.0
 20
190.0
 30
0.0
 11
297.0
 21
190.0
 31
0.0
  0
LINE
  5
1DB
100
AcDbEntity
  8
1
370
     9
  6
Continuous
 62
     7
100
AcDbLine
 10
294.0
 20
190.0
 30
0.0
 11
297.0
 21
190.0
 31
0.0
  0
LINE
  5
1DC
100
AcDbEntity
  8
1
370
     9
  6
Continuous
 62
     7
100
AcDbLine
 10
294.0
 20
189.6
 30
0.0
 11
297.0
 21
189.6
 31
0.0
  0
LINE
  5
1DD
100
AcDbEntity
  8
1
370
     9
  6
Continuous
 62
     7
100
AcDbLine
 10
294.0
 20
189.6
 30
0.0
 11
297.0
 21
189.6
 31
0.0
  0
LINE
  5
1DE
100
AcDbEntity
  8
1
370
     9
  6
Continuous
 62
     7
100
AcDbLine
 10
294.0
 20
189.2
 30
0.0
 11
297.0
 21
189.2
 31
0.0
  0
LINE
  5
1DF
100
AcDbEntity
  8
1
370
     9
  6
Continuous
 62
     7
100
AcDbLine
 10
294.0
 20
189.2
 30
0.0
 11
297.0
 21
189.2
 31
0.0
  0
LINE
  5
1E0
100
AcDbEntity
  8
1
370
     9
  6
Continuous
 62
     7
100
AcDbLine
 10
294.0
 20
188.8
 30
0.0
 11
297.0
 21
188.8
 31
0.0
  0
LINE
  5
1E1
100
AcDbEntity
  8
1
370
     9
  6
Continuous
 62
     7
100
AcDbLine
 10
294.0
 20
188.8
 30
0.0
 11
297.0
 21
188.8
 31
0.0
  0
LINE
  5
1E2
100
AcDbEntity
  8
1
370
     9
  6
Continuous
 62
     7
100
AcDbLine
 10
294.0
 20
188.4
 30
0.0
 11
297.0
 21
188.4
 31
0.0
  0
LINE
  5
1E3
100
AcDbEntity
  8
1
370
     9
  6
Continuous
 62
     7
100
AcDbLine
 10
294.0
 20
188.4
 30
0.0
 11
297.0
 21
188.4
 31
0.0
  0
LINE
  5
1E4
100
AcDbEntity
  8
1
370
     9
  6
Continuous
 62
     7
100
AcDbLine
 10
294.0
 20
188.0
 30
0.0
 11
297.0
 21
188.0
 31
0.0
  0
LINE
  5
1E5
100
AcDbEntity
  8
1
370
     9
  6
Continuous
 62
     7
100
AcDbLine
 10
294.0
 20
188.0
 30
0.0
 11
297.0
 21
188.0
 31
0.0
  0
LINE
  5
1E6
100
AcDbEntity
  8
1
370
     9
  6
Continuous
 62
     7
100
AcDbLine
 10
294.0
 20
187.6
 30
0.0
 11
297.0
 21
187.6
 31
0.0
  0
LINE
  5
1E7
100
AcDbEntity
  8
1
370
     9
  6
Continuous
 62
     7
100
AcDbLine
 10
294.0
 20
187.6
 30
0.0
 11
297.0
 21
187.6
 31
0.0
  0
LINE
  5
1E8
100
AcDbEntity
  8
1
370
     9
  6
Continuous
 62
     7
100
AcDbLine
 10
294.0
 20
187.2
 30
0.0
 11
297.0
 21
187.2
 31
0.0
  0
LINE
  5
1E9
100
AcDbEntity
  8
1
370
     9
  6
Continuous
 62
     7
100
AcDbLine
 10
294.0
 20
187.2
 30
0.0
 11
297.0
 21
187.2
 31
0.0
  0
LINE
  5
1EA
100
AcDbEntity
  8
1
370
     9
  6
Continuous
 62
     7
100
AcDbLine
 10
294.0
 20
186.8
 30
0.0
 11
297.0
 21
186.8
 31
0.0
  0
LINE
  5
1EB
100
AcDbEntity
  8
1
370
     9
  6
Continuous
 62
     7
100
AcDbLine
 10
294.0
 20
186.8
 30
0.0
 11
297.0
 21
186.8
 31
0.0
  0
LINE
  5
1EC
100
AcDbEntity
  8
1
370
     9
  6
Continuous
 62
     7
100
AcDbLine
 10
294.0
 20
186.4
 30
0.0
 11
297.0
 21
186.4
 31
0.0
  0
LINE
  5
1ED
100
AcDbEntity
  8
1
370
     9
  6
Continuous
 62
     7
100
AcDbLine
 10
294.0
 20
186.0
 30
0.0
 11
297.0
 21
186.0
 31
0.0
  0
LINE
  5
1EE
100
AcDbEntity
  8
1
370
     9
  6
Continuous
 62
     7
100
AcDbLine
 10
294.0
 20
185.5
 30
0.0
 11
297.0
 21
185.5
 31
0.0
  0
LINE
  5
1EF
100
AcDbEntity
  8
1
370
     9
  6
Continuous
 62
     7
100
AcDbLine
 10
294.0
 20
185.0
 30
0.0
 11
297.0
 21
185.0
 31
0.0
  0
LINE
  5
1F0
100
AcDbEntity
  8
1
370
     9
  6
Continuous
 62
     7
100
AcDbLine
 10
294.0
 20
184.4
 30
0.0
 11
297.0
 21
184.4
 31
0.0
  0
LINE
  5
1F1
100
AcDbEntity
  8
1
370
     9
  6
Continuous
 62
     7
100
AcDbLine
 10
294.0
 20
183.8
 30
0.0
 11
297.0
 21
183.8
 31
0.0
  0
LINE
  5
1F2
100
AcDbEntity
  8
1
370
     9
  6
Continuous
 62
     7
100
AcDbLine
 10
294.0
 20
183.1
 30
0.0
 11
297.0
 21
183.1
 31
0.0
  0
LINE
  5
1F3
100
AcDbEntity
  8
1
370
     9
  6
Continuous
 62
     7
100
AcDbLine
 10
294.0
 20
182.4
 30
0.0
 11
297.0
 21
182.4
 31
0.0
  0
LINE
  5
1F4
100
AcDbEntity
  8
1
370
     9
  6
Continuous
 62
     7
100
AcDbLine
 10
294.0
 20
181.6
 30
0.0
 11
297.0
 21
181.6
 31
0.0
  0
LINE
  5
1F5
100
AcDbEntity
  8
1
370
     9
  6
Continuous
 62
     7
100
AcDbLine
 10
294.0
 20
180.8
 30
0.0
 11
297.0
 21
180.8
 31
0.0
  0
LINE
  5
1F6
100
AcDbEntity
  8
1
370
     9
  6
Continuous
 62
     7
100
AcDbLine
 10
294.0
 20
179.9
 30
0.0
 11
297.0
 21
179.9
 31
0.0
  0
LINE
  5
1F7
100
AcDbEntity
  8
1
370
     9
  6
Continuous
 62
     7
100
AcDbLine
 10
294.0
 20
179.0
 30
0.0
 11
297.0
 21
179.0
 31
0.0
  0
LINE
  5
1F8
100
AcDbEntity
  8
1
370
     9
  6
Continuous
 62
     7
100
AcDbLine
 10
294.0
 20
178.0
 30
0.0
 11
297.0
 21
178.0
 31
0.0
  0
LINE
  5
1F9
100
AcDbEntity
  8
1
370
     9
  6
Continuous
 62
     7
100
AcDbLine
 10
294.0
 20
177.0
 30
0.0
 11
297.0
 21
177.0
 31
0.0
  0
LINE
  5
1FA
100
AcDbEntity
  8
1
370
     9
  6
Continuous
 62
     7
100
AcDbLine
 10
294.0
 20
175.9
 30
0.0
 11
297.0
 21
175.9
 31
0.0
  0
LINE
  5
1FB
100
AcDbEntity
  8
1
370
     9
  6
Continuous
 62
     7
100
AcDbLine
 10
294.0
 20
174.8
 30
0.0
 11
297.0
 21
174.8
 31
0.0
  0
LINE
  5
1FC
100
AcDbEntity
  8
1
370
     9
  6
Continuous
 62
     7
100
AcDbLine
 10
294.0
 20
173.6
 30
0.0
 11
297.0
 21
173.6
 31
0.0
  0
LINE
  5
1FD
100
AcDbEntity
  8
1
370
     9
  6
Continuous
 62
     7
100
AcDbLine
 10
294.0
 20
172.4
 30
0.0
 11
297.0
 21
172.4
 31
0.0
  0
LINE
  5
1FE
100
AcDbEntity
  8
1
370
     9
  6
Continuous
 62
     7
100
AcDbLine
 10
294.0
 20
171.1
 30
0.0
 11
297.0
 21
171.1
 31
0.0
  0
LINE
  5
1FF
100
AcDbEntity
  8
1
370
     9
  6
Continuous
 62
     7
100
AcDbLine
 10
294.0
 20
169.8
 30
0.0
 11
297.0
 21
169.8
 31
0.0
  0
LINE
  5
200
100
AcDbEntity
  8
1
370
     9
  6
Continuous
 62
     7
100
AcDbLine
 10
294.0
 20
168.4
 30
0.0
 11
297.0
 21
168.4
 31
0.0
  0
LINE
  5
201
100
AcDbEntity
  8
1
370
     9
  6
Continuous
 62
     7
100
AcDbLine
 10
294.0
 20
167.0
 30
0.0
 11
297.0
 21
167.0
 31
0.0
  0
LINE
  5
202
100
AcDbEntity
  8
1
370
     9
  6
Continuous
 62
     7
100
AcDbLine
 10
294.0
 20
165.5
 30
0.0
 11
297.0
 21
165.5
 31
0.0
  0
LINE
  5
203
100
AcDbEntity
  8
1
370
     9
  6
Continuous
 62
     7
100
AcDbLine
 10
294.0
 20
164.0
 30
0.0
 11
297.0
 21
164.0
 31
0.0
  0
LINE
  5
204
100
AcDbEntity
  8
1
370
     9
  6
Continuous
 62
     7
100
AcDbLine
 10
294.0
 20
162.4
 30
0.0
 11
297.0
 21
162.4
 31
0.0
  0
LINE
  5
205
100
AcDbEntity
  8
1
370
     9
  6
Continuous
 62
     7
100
AcDbLine
 10
294.0
 20
160.8
 30
0.0
 11
297.0
 21
160.8
 31
0.0
  0
LINE
  5
206
100
AcDbEntity
  8
1
370
     9
  6
Continuous
 62
     7
100
AcDbLine
 10
294.0
 20
159.1
 30
0.0
 11
297.0
 21
159.1
 31
0.0
  0
LINE
  5
207
100
AcDbEntity
  8
1
370
     9
  6
Continuous
 62
     7
100
AcDbLine
 10
294.0
 20
157.4
 30
0.0
 11
297.0
 21
157.4
 31
0.0
  0
LINE
  5
208
100
AcDbEntity
  8
1
370
     9
  6
Continuous
 62
     7
100
AcDbLine
 10
294.0
 20
155.6
 30
0.0
 11
297.0
 21
155.6
 31
0.0
  0
LINE
  5
209
100
AcDbEntity
  8
1
370
     9
  6
Continuous
 62
     7
100
AcDbLine
 10
294.0
 20
153.8
 30
0.0
 11
297.0
 21
153.8
 31
0.0
  0
LINE
  5
20A
100
AcDbEntity
  8
1
370
     9
  6
Continuous
 62
     7
100
AcDbLine
 10
294.0
 20
151.9
 30
0.0
 11
297.0
 21
151.9
 31
0.0
  0
LINE
  5
20B
100
AcDbEntity
  8
1
370
     9
  6
Continuous
 62
     7
100
AcDbLine
 10
294.0
 20
150.0
 30
0.0
 11
297.0
 21
150.0
 31
0.0
  0
INSERT
  5
213
100
AcDbEntity
  8
0
370
     9
  6
Continuous
 62
     7
100
AcDbBlockReference
  2
*G14
 10
0.0
 20
0.0
 30
0.0
  0
INSERT
  5
21D
100
AcDbEntity
  8
0
370
     9
  6
Continuous
 62
     7
100
AcDbBlockReference
  2
*G15
 10
0.0
 20
0.0
 30
0.0
  0
INSERT
  5
225
100
AcDbEntity
  8
0
370
     9
  6
Continuous
 62
     7
100
AcDbBlockReference
  2
*G16
 10
0.0
 20
0.0
 30
0.0
  0
INSERT
  5
22D
100
AcDbEntity
  8
0
370
     9
  6
Continuous
 62
     7
100
AcDbBlockReference
  2
*G17
 10
0.0
 20
0.0
 30
0.0
  0
LINE
  5
22E
100
AcDbEntity
  8
1
370
     9
  6
Continuous
 62
     7
100
AcDbLine
 10
346.0
 20
184.35
 30
0.0
 11
368.0
 21
183.85
 31
0.0
  0
LINE
  5
22F
100
AcDbEntity
  8
1
370
     9
  6
Continuous
 62
     7
100
AcDbLine
 10
368.0
 20
181.85
 30
0.0
 11
368.0
 21
183.85
 31
0.0
  0
LINE
  5
230
100
AcDbEntity
  8
1
370
     9
  6
Continuous
 62
     7
100
AcDbLine
 10
368.0
 20
181.85
 30
0.0
 11
346.0
 21
181.35
 31
0.0
  0
LINE
  5
231
100
AcDbEntity
  8
1
370
     9
  6
Continuous
 62
     7
100
AcDbLine
 10
346.0
 20
112.65
 30
0.0
 11
368.0
 21
112.15
 31
0.0
  0
LINE
  5
232
100
AcDbEntity
  8
1
370
     9
  6
Continuous
 62
     7
100
AcDbLine
 10
368.0
 20
110.15
 30
0.0
 11
368.0
 21
112.15
 31
0.0
  0
LINE
  5
233
100
AcDbEntity
  8
1
370
     9
  6
Continuous
 62
     7
100
AcDbLine
 10
368.0
 20
110.15
 30
0.0
 11
346.0
 21
109.65
 31
0.0
  0
LINE
  5
234
100
AcDbEntity
  8
1
370
     9
  6
Continuous
 62
     7
100
AcDbLine
 10
346.0
 20
165.500003
 30
0.0
 11
368.0
 21
165.000003
 31
0.0
  0
LINE
  5
235
100
AcDbEntity
  8
1
370
     9
  6
Continuous
 62
     7
100
AcDbLine
 10
368.0
 20
163.000003
 30
0.0
 11
368.0
 21
165.000003
 31
0.0
  0
LINE
  5
236
100
AcDbEntity
  8
1
370
     9
  6
Continuous
 62
     7
100
AcDbLine
 10
368.0
 20
163.000003
 30
0.0
 11
346.0
 21
162.500003
 31
0.0
  0
LINE
  5
237
100
AcDbEntity
  8
1
370
     9
  6
Continuous
 62
     7
100
AcDbLine
 10
346.0
 20
131.500003
 30
0.0
 11
368.0
 21
131.000003
 31
0.0
  0
LINE
  5
238
100
AcDbEntity
  8
1
370
     9
  6
Continuous
 62
     7
100
AcDbLine
 10
368.0
 20
129.000003
 30
0.0
 11
368.0
 21
131.000003
 31
0.0
  0
LINE
  5
239
100
AcDbEntity
  8
1
370
     9
  6
Continuous
 62
     7
100
AcDbLine
 10
368.0
 20
129.000003
 30
0.0
 11
346.0
 21
128.500003
 31
0.0
  0
LINE
  5
23A
100
AcDbEntity
  8
8
370
     9
  6
Continuous
 62
     6
100
AcDbLine
 10
275.809884
 20
157.511039
 30
0.0
 11
279.5
 21
157.511039
 31
0.0
  0
LINE
  5
23B
100
AcDbEntity
  8
8
370
     9
  6
Continuous
 62
     6
100
AcDbLine
 10
275.809884
 20
152.511039
 30
0.0
 11
279.5
 21
152.511039
 31
0.0
  0
LINE
  5
23C
100
AcDbEntity
  8
8
370
     9
  6
Continuous
 62
     6
100
AcDbLine
 10
279.5
 20
163.801039
 30
0.0
 11
279.5
 21
146.221039
 31
0.0
  0
LINE
  5
23D
100
AcDbEntity
  8
8
370
     9
  6
Continuous
 62
     6
100
AcDbLine
 10
281.309884
 20
146.221039
 30
0.0
 11
279.5
 21
146.221039
 31
0.0
  0
LINE
  5
23E
100
AcDbEntity
  8
8
370
     9
  6
Continuous
 62
     6
100
AcDbLine
 10
279.5
 20
163.801039
 30
0.0
 11
281.309884
 21
163.801039
 31
0.0
  0
LINE
  5
23F
100
AcDbEntity
  8
8
370
     9
  6
Continuous
 62
     6
100
AcDbLine
 10
293.5
 20
131.011039
 30
0.0
 11
293.5
 21
139.011039
 31
0.0
  0
LINE
  5
240
100
AcDbEntity
  8
8
370
     9
  6
Continuous
 62
     6
100
AcDbLine
 10
294.190115
 20
131.011039
 30
0.0
 11
293.5
 21
131.011039
 31
0.0
  0
LINE
  5
241
100
AcDbEntity
  8
8
370
     9
  6
Continuous
 62
     6
100
AcDbLine
 10
294.190115
 20
139.011039
 30
0.0
 11
293.5
 21
139.011039
 31
0.0
  0
LINE
  5
242
100
AcDbEntity
  8
8
370
     9
  6
Continuous
 62
     6
100
AcDbLine
 10
293.5
 20
133.511039
 30
0.0
 11
289.608763
 21
133.511039
 31
0.0
  0
LINE
  5
243
100
AcDbEntity
  8
8
370
     9
  6
Continuous
 62
     6
100
AcDbLine
 10
293.5
 20
136.511039
 30
0.0
 11
289.608763
 21
136.511039
 31
0.0
  0
LINE
  5
244
100
AcDbEntity
  8
8
370
     9
  6
Continuous
 62
     6
100
AcDbLine
 10
277.0
 20
144.0
 30
0.0
 11
287.0
 21
144.0
 31
0.0
  0
LINE
  5
245
100
AcDbEntity
  8
8
370
     9
  6
Continuous
 62
     6
100
AcDbLine
 10
277.0
 20
129.011039
 30
0.0
 11
277.0
 21
144.0
 31
0.0
  0
LINE
  5
246
100
AcDbEntity
  8
8
370
     9
  6
Continuous
 62
     6
100
AcDbLine
 10
258.0
 20
129.011039
 30
0.0
 11
258.0
 21
141.011039
 31
0.0
  0
LINE
  5
247
100
AcDbEntity
  8
8
370
     9
  6
Continuous
 62
     6
100
AcDbLine
 10
258.0
 20
141.011039
 30
0.0
 11
277.0
 21
141.011039
 31
0.0
  0
LINE
  5
248
100
AcDbEntity
  8
8
370
     9
  6
Continuous
 62
     6
100
AcDbLine
 10
287.0
 20
129.011039
 30
0.0
 11
258.0
 21
129.011039
 31
0.0
  0
LINE
  5
249
100
AcDbEntity
  8
8
370
     9
  6
Continuous
 62
     6
100
AcDbLine
 10
281.309884
 20
163.801039
 30
0.0
 11
281.309884
 21
146.221039
 31
0.0
  0
LINE
  5
24A
100
AcDbEntity
  8
8
370
     9
  6
Continuous
 62
     6
100
AcDbLine
 10
295.690115
 20
126.221211
 30
0.0
 11
294.190115
 21
126.221211
 31
0.0
  0
LINE
  5
24B
100
AcDbEntity
  8
8
370
     9
  6
Continuous
 62
     6
100
AcDbLine
 10
294.190115
 20
126.221211
 30
0.0
 11
294.190115
 21
143.800868
 31
0.0
  0
LINE
  5
24C
100
AcDbEntity
  8
8
370
     9
  6
Continuous
 62
     6
100
AcDbLine
 10
295.690115
 20
126.221211
 30
0.0
 11
295.690115
 21
143.800868
 31
0.0
  0
LINE
  5
24D
100
AcDbEntity
  8
8
370
     9
  6
Continuous
 62
     6
100
AcDbLine
 10
298.5
 20
150.022079
 30
0.0
 11
288.5
 21
150.022079
 31
0.0
  0
LINE
  5
24E
100
AcDbEntity
  8
8
370
     9
  6
Continuous
 62
     6
100
AcDbLine
 10
298.5
 20
165.011039
 30
0.0
 11
298.5
 21
150.022079
 31
0.0
  0
LINE
  5
24F
100
AcDbEntity
  8
8
370
     9
  6
Continuous
 62
     6
100
AcDbLine
 10
317.5
 20
165.011039
 30
0.0
 11
317.5
 21
153.011039
 31
0.0
  0
LINE
  5
250
100
AcDbEntity
  8
8
370
     9
  6
Continuous
 62
     6
100
AcDbLine
 10
317.5
 20
153.011039
 30
0.0
 11
298.5
 21
153.011039
 31
0.0
  0
LINE
  5
251
100
AcDbEntity
  8
8
370
     9
  6
Continuous
 62
     6
100
AcDbLine
 10
288.5
 20
165.011039
 30
0.0
 11
317.5
 21
165.011039
 31
0.0
  0
LINE
  5
252
100
AcDbEntity
  8
8
370
     9
  6
Continuous
 62
     6
100
AcDbLine
 10
296.690115
 20
137.511039
 30
0.0
 11
296.690115
 21
132.511039
 31
0.0
  0
LINE
  5
253
100
AcDbEntity
  8
8
370
     9
  6
Continuous
 62
     6
100
AcDbLine
 10
297.690115
 20
137.511039
 30
0.0
 11
297.690115
 21
132.511039
 31
0.0
  0
LINE
  5
254
100
AcDbEntity
  8
8
370
     9
  6
Continuous
 62
     6
100
AcDbLine
 10
298.690115
 20
137.511039
 30
0.0
 11
298.690115
 21
132.511039
 31
0.0
  0
LINE
  5
255
100
AcDbEntity
  8
8
370
     9
  6
Continuous
 62
     6
100
AcDbLine
 10
299.690115
 20
137.511039
 30
0.0
 11
295.690115
 21
137.511039
 31
0.0
  0
LINE
  5
256
100
AcDbEntity
  8
8
370
     9
  6
Continuous
 62
     6
100
AcDbLine
 10
299.690115
 20
132.511039
 30
0.0
 11
295.690115
 21
132.511039
 31
0.0
  0
LINE
  5
257
100
AcDbEntity
  8
8
370
     9
  6
Continuous
 62
     6
100
AcDbLine
 10
289.608763
 20
132.511039
 30
0.0
 11
289.608763
 21
137.511039
 31
0.0
  0
LINE
  5
258
100
AcDbEntity
  8
8
370
     9
  6
Continuous
 62
     6
100
AcDbLine
 10
302.690115
 20
139.011039
 30
0.0
 11
302.690115
 21
131.011039
 31
0.0
  0
LINE
  5
259
100
AcDbEntity
  8
8
370
     9
  6
Continuous
 62
     6
100
AcDbLine
 10
299.690115
 20
139.011039
 30
0.0
 11
302.690115
 21
139.011039
 31
0.0
  0
LINE
  5
25A
100
AcDbEntity
  8
8
370
     9
  6
Continuous
 62
     6
100
AcDbLine
 10
299.690115
 20
131.011039
 30
0.0
 11
299.690115
 21
139.011039
 31
0.0
  0
LINE
  5
25B
100
AcDbEntity
  8
8
370
     9
  6
Continuous
 62
     6
100
AcDbLine
 10
302.690115
 20
131.011039
 30
0.0
 11
299.690115
 21
131.011039
 31
0.0
  0
LINE
  5
25C
100
AcDbEntity
  8
8
370
     9
  6
Continuous
 62
     6
100
AcDbLine
 10
289.608763
 20
137.511039
 30
0.0
 11
288.5
 21
137.511039
 31
0.0
  0
LINE
  5
25D
100
AcDbEntity
  8
8
370
     9
  6
Continuous
 62
     6
100
AcDbLine
 10
288.5
 20
132.511039
 30
0.0
 11
289.608763
 21
132.511039
 31
0.0
  0
LINE
  5
25E
100
AcDbEntity
  8
8
370
     9
  6
Continuous
 62
     6
100
AcDbLine
 10
278.809884
 20
152.511039
 30
0.0
 11
278.809884
 21
157.511039
 31
0.0
  0
LINE
  5
25F
100
AcDbEntity
  8
8
370
     9
  6
Continuous
 62
     6
100
AcDbLine
 10
277.809884
 20
152.511039
 30
0.0
 11
277.809884
 21
157.511039
 31
0.0
  0
LINE
  5
260
100
AcDbEntity
  8
8
370
     9
  6
Continuous
 62
     6
100
AcDbLine
 10
276.809884
 20
152.511039
 30
0.0
 11
276.809884
 21
157.511039
 31
0.0
  0
LINE
  5
261
100
AcDbEntity
  8
8
370
     9
  6
Continuous
 62
     6
100
AcDbLine
 10
281.825339
 20
153.511039
 30
0.0
 11
285.891236
 21
153.511039
 31
0.0
  0
LINE
  5
262
100
AcDbEntity
  8
8
370
     9
  6
Continuous
 62
     6
100
AcDbLine
 10
281.825339
 20
156.511039
 30
0.0
 11
285.891236
 21
156.511039
 31
0.0
  0
LINE
  5
263
100
AcDbEntity
  8
8
370
     9
  6
Continuous
 62
     6
100
AcDbLine
 10
285.891236
 20
157.511039
 30
0.0
 11
285.891236
 21
152.511039
 31
0.0
  0
LINE
  5
264
100
AcDbEntity
  8
8
370
     9
  6
Continuous
 62
     6
100
AcDbLine
 10
281.825339
 20
151.011039
 30
0.0
 11
281.309884
 21
151.011039
 31
0.0
  0
LINE
  5
265
100
AcDbEntity
  8
8
370
     9
  6
Continuous
 62
     6
100
AcDbLine
 10
281.825339
 20
159.011039
 30
0.0
 11
281.825339
 21
151.011039
 31
0.0
  0
LINE
  5
266
100
AcDbEntity
  8
8
370
     9
  6
Continuous
 62
     6
100
AcDbLine
 10
281.309884
 20
159.011039
 30
0.0
 11
281.825339
 21
159.011039
 31
0.0
  0
LINE
  5
267
100
AcDbEntity
  8
8
370
     9
  6
Continuous
 62
     6
100
AcDbLine
 10
272.809884
 20
151.011039
 30
0.0
 11
272.809884
 21
159.011039
 31
0.0
  0
LINE
  5
268
100
AcDbEntity
  8
8
370
     9
  6
Continuous
 62
     6
100
AcDbLine
 10
275.809884
 20
151.011039
 30
0.0
 11
272.809884
 21
151.011039
 31
0.0
  0
LINE
  5
269
100
AcDbEntity
  8
8
370
     9
  6
Continuous
 62
     6
100
AcDbLine
 10
275.809884
 20
159.011039
 30
0.0
 11
275.809884
 21
151.011039
 31
0.0
  0
LINE
  5
26A
100
AcDbEntity
  8
8
370
     9
  6
Continuous
 62
     6
100
AcDbLine
 10
272.809884
 20
159.011039
 30
0.0
 11
275.809884
 21
159.011039
 31
0.0
  0
LINE
  5
26B
100
AcDbEntity
  8
8
370
     9
  6
Continuous
 62
     6
100
AcDbLine
 10
285.891236
 20
152.511039
 30
0.0
 11
287.0
 21
152.511039
 31
0.0
  0
LINE
  5
26C
100
AcDbEntity
  8
8
370
     9
  6
Continuous
 62
     6
100
AcDbLine
 10
287.0
 20
157.511039
 30
0.0
 11
285.891236
 21
157.511039
 31
0.0
  0
LINE
  5
26D
100
AcDbEntity
  8
8
370
     9
  6
Continuous
 62
     6
100
AcDbLine
 10
305.0
 20
123.011039
 30
0.0
 11
293.0
 21
123.011039
 31
0.0
  0
ARC
  5
26E
100
AcDbEntity
  8
8
370
     9
  6
Continuous
 62
     6
100
AcDbCircle
 10
305.0
 20
124.011039
 30
0.0
 40
1.0
100
AcDbArc
 50
-90.0
 51
0.0
  0
LINE
  5
26F
100
AcDbEntity
  8
8
370
     9
  6
Continuous
 62
     6
100
AcDbLine
 10
306.0
 20
153.011039
 30
0.0
 11
306.0
 21
124.011039
 31
0.0
  0
LINE
  5
270
100
AcDbEntity
  8
8
370
     9
  6
Continuous
 62
     6
100
AcDbLine
 10
292.0
 20
136.511039
 30
0.0
 11
292.0
 21
150.022079
 31
0.0
  0
LINE
  5
271
100
AcDbEntity
  8
8
370
     9
  6
Continuous
 62
     6
100
AcDbLine
 10
298.5
 20
150.022079
 30
0.0
 11
288.5
 21
150.022079
 31
0.0
  0
LINE
  5
272
100
AcDbEntity
  8
8
370
     9
  6
Continuous
 62
     6
100
AcDbLine
 10
298.5
 20
165.011039
 30
0.0
 11
298.5
 21
150.022079
 31
0.0
  0
LINE
  5
273
100
AcDbEntity
  8
8
370
     9
  6
Continuous
 62
     6
100
AcDbLine
 10
317.5
 20
165.011039
 30
0.0
 11
317.5
 21
153.011039
 31
0.0
  0
LINE
  5
274
100
AcDbEntity
  8
8
370
     9
  6
Continuous
 62
     6
100
AcDbLine
 10
317.5
 20
153.011039
 30
0.0
 11
298.5
 21
153.011039
 31
0.0
  0
LINE
  5
275
100
AcDbEntity
  8
8
370
     9
  6
Continuous
 62
     6
100
AcDbLine
 10
288.5
 20
165.011039
 30
0.0
 11
317.5
 21
165.011039
 31
0.0
  0
LINE
  5
276
100
AcDbEntity
  8
8
370
     9
  6
Continuous
 62
     6
100
AcDbLine
 10
295.690115
 20
143.800868
 30
0.0
 11
294.190115
 21
143.800868
 31
0.0
  0
LINE
  5
277
100
AcDbEntity
  8
8
370
     9
  6
Continuous
 62
     6
100
AcDbLine
 10
287.0
 20
123.011039
 30
0.0
 11
287.0
 21
165.011039
 31
0.0
  0
LINE
  5
278
100
AcDbEntity
  8
8
370
     9
  6
Continuous
 62
     6
100
AcDbLine
 10
288.5
 20
165.011039
 30
0.0
 11
288.5
 21
123.011039
 31
0.0
  0
LINE
  5
279
100
AcDbEntity
  8
8
370
     9
  6
Continuous
 62
     6
100
AcDbLine
 10
287.0
 20
123.011039
 30
0.0
 11
343.0
 21
123.011039
 31
0.0
  0
LINE
  5
27A
100
AcDbEntity
  8
8
370
     9
  6
Continuous
 62
     6
100
AcDbLine
 10
343.0
 20
165.011039
 30
0.0
 11
287.0
 21
165.011039
 31
0.0
  0
LINE
  5
27B
100
AcDbEntity
  8
8
370
     9
  6
Continuous
 62
     6
100
AcDbLine
 10
343.0
 20
123.011039
 30
0.0
 11
343.0
 21
165.011039
 31
0.0
  0
DIMENSION
  5
28F
100
AcDbEntity
  8
2
370
     9
  6
Continuous
 62
   134
100
AcDbDimension
  2
*D18
 10
346.0
 20
85.0
 30
0.0
 11
262.5
 21
85.0
 31
0.0
 71
     5
 72
     1
 41
1.0
 42
0.0
  1
167
100
AcDbAlignedDimension
 13
346.0
 23
112.30528
 33
0.0
 14
179.0
 24
107.5
 34
0.0
100
AcDbRotatedDimension
  0
DIMENSION
  5
2A3
100
AcDbEntity
  8
2
370
     9
  6
Continuous
 62
   134
100
AcDbDimension
  2
*D19
 10
368.0
 20
85.0
 30
0.0
 11
357.0
 21
85.0
 31
0.0
 71
     5
 72
     1
 41
1.0
 42
0.0
  1
22
100
AcDbAlignedDimension
 13
368.0
 23
128.0
 33
0.0
 14
346.0
 24
117.0
 34
0.0
100
AcDbRotatedDimension
  0
DIMENSION
  5
2B7
100
AcDbEntity
  8
2
370
     9
  6
Continuous
 62
   134
100
AcDbDimension
  2
*D20
 10
368.0
 20
74.846125
 30
0.0
 11
273.5
 21
74.846125
 31
0.0
 71
     5
 72
     1
 41
1.0
 42
0.0
  1
189
100
AcDbAlignedDimension
 13
368.0
 23
111.168006
 33
0.0
 14
179.0
 24
97.0
 34
0.0
100
AcDbRotatedDimension
  0
DIMENSION
  5
2CB
100
AcDbEntity
  8
2
370
     9
  6
Continuous
 62
   134
100
AcDbDimension
  2
*D21
 10
170.5
 20
198.5
 30
0.0
 11
170.5
 21
147.0
 31
0.0
 71
     5
 72
     1
 41
1.0
 42
0.0
  1
φ103
100
AcDbAlignedDimension
 13
179.100105
 23
198.5
 33
0.0
 14
179.0
 24
95.5
 34
0.0
 50
90.0
100
AcDbRotatedDimension
  0
DIMENSION
  5
2DE
100
AcDbEntity
  8
2
370
     9
  6
Continuous
 62
   134
100
AcDbDimension
  2
*D22
 10
197.752526
 20
195.0
 30
0.0
 11
197.752526
 21
147.0
 31
0.0
 71
     5
 72
     1
 41
1.0
 42
0.0
  1
φ96
100
AcDbAlignedDimension
 13
196.174849
 23
195.0
 33
0.0
 14
197.752526
 24
99.0
 34
0.0
 50
90.0
100
AcDbRotatedDimension
  0
DIMENSION
  5
2F1
100
AcDbEntity
  8
2
370
     9
  6
Continuous
 62
   134
100
AcDbDimension
  2
*D23
 10
215.0
 20
194.5
 30
0.0
 11
215.0
 21
147.0
 31
0.0
 71
     5
 72
     1
 41
1.0
 42
0.0
  1
φ95
100
AcDbAlignedDimension
 13
216.5
 23
194.5
 33
0.0
 14
215.0
 24
99.5
 34
0.0
 50
90.0
100
AcDbRotatedDimension
  0
DIMENSION
  5
305
100
AcDbEntity
  8
2
370
     9
  6
Continuous
 62
   134
100
AcDbDimension
  2
*D24
 10
384.776994
 20
187.5
 30
0.0
 11
384.776994
 21
147.0
 31
0.0
 71
     5
 72
     1
 41
1.0
 42
0.0
  1
81
100
AcDbAlignedDimension
 13
346.568347
 23
187.5
 33
0.0
 14
346.709121
 24
106.5
 34
0.0
 50
90.0
100
AcDbRotatedDimension
  0
ARC
  5
306
100
AcDbEntity
  8
1
370
     9
  6
Continuous
 62
     7
100
AcDbCircle
 10
280.81775
 20
147.0
 30
0.0
 40
89.805953
100
AcDbArc
 50
-22.143265
 51
22.143265
  0
LINE
  5
307
100
AcDbEntity
  8
1
370
     9
  6
Continuous
 62
     7
100
AcDbLine
 10
77.592366
 20
181.614051
 30
0.0
 11
77.241413
 21
181.965005
 31
0.0
  0
CIRCLE
  5
308
100
AcDbEntity
  8
1
370
     9
  6
Continuous
 62
     7
100
AcDbCircle
 10
91.223321
 20
147.0
 30
0.0
 40
45.0
  0
CIRCLE
  5
309
100
AcDbEntity
  8
1
370
     9
  6
Continuous
 62
     7
100
AcDbCircle
 10
91.223321
 20
147.0
 30
0.0
 40
49.5
  0
CIRCLE
  5
30A
100
AcDbEntity
  8
1
370
     9
  6
Continuous
 62
     7
100
AcDbCircle
 10
91.223321
 20
147.0
 30
0.0
 40
51.5
  0
INSERT
  5
318
100
AcDbEntity
  8
1
370
     9
  6
Continuous
 62
     7
100
AcDbBlockReference
  2
*G25
 10
0.0
 20
0.0
 30
0.0
  0
CIRCLE
  5
319
100
AcDbEntity
  8
1
370
     9
  6
Continuous
 62
     7
100
AcDbCircle
 10
45.223321
 20
114.0
 30
0.0
 40
2.0
  0
LINE
  5
31A
100
AcDbEntity
  8
2
370
     9
  6
Continuous
 62
   134
100
AcDbLine
 10
42.454981
 20
114.0
 30
0.0
 11
48.377928
 21
114.0
 31
0.0
  0
LINE
  5
31B
100
AcDbEntity
  8
2
370
     9
  6
Continuous
 62
   134
100
AcDbLine
 10
45.223321
 20
116.530866
 30
0.0
 11
45.223321
 21
111.0
 31
0.0
  0
CIRCLE
  5
31C
100
AcDbEntity
  8
1
370
     9
  6
Continuous
 62
     7
100
AcDbCircle
 10
137.223321
 20
114.0
 30
0.0
 40
2.0
  0
LINE
  5
31D
100
AcDbEntity
  8
2
370
     9
  6
Continuous
 62
   134
100
AcDbLine
 10
134.454981
 20
114.0
 30
0.0
 11
140.377928
 21
114.0
 31
0.0
  0
LINE
  5
31E
100
AcDbEntity
  8
2
370
     9
  6
Continuous
 62
   134
100
AcDbLine
 10
137.223321
 20
116.530866
 30
0.0
 11
137.223321
 21
111.0
 31
0.0
  0
CIRCLE
  5
31F
100
AcDbEntity
  8
1
370
     9
  6
Continuous
 62
     7
100
AcDbCircle
 10
137.223321
 20
180.0
 30
0.0
 40
2.0
  0
LINE
  5
320
100
AcDbEntity
  8
2
370
     9
  6
Continuous
 62
   134
100
AcDbLine
 10
134.454981
 20
180.0
 30
0.0
 11
140.377928
 21
180.0
 31
0.0
  0
LINE
  5
321
100
AcDbEntity
  8
2
370
     9
  6
Continuous
 62
   134
100
AcDbLine
 10
137.223321
 20
182.530866
 30
0.0
 11
137.223321
 21
177.0
 31
0.0
  0
CIRCLE
  5
322
100
AcDbEntity
  8
1
370
     9
  6
Continuous
 62
     7
100
AcDbCircle
 10
45.223321
 20
180.0
 30
0.0
 40
2.0
  0
LINE
  5
323
100
AcDbEntity
  8
2
370
     9
  6
Continuous
 62
   134
100
AcDbLine
 10
42.454981
 20
180.0
 30
0.0
 11
48.377928
 21
180.0
 31
0.0
  0
LINE
  5
324
100
AcDbEntity
  8
2
370
     9
  6
Continuous
 62
   134
100
AcDbLine
 10
45.223321
 20
182.530866
 30
0.0
 11
45.223321
 21
177.0
 31
0.0
  0
LINE
  5
325
100
AcDbEntity
  8
2
370
     9
  6
Continuous
 62
   134
100
AcDbLine
 10
91.223321
 20
202.0
 30
0.0
 11
91.223321
 21
71.5
 31
0.0
  0
LINE
  5
326
100
AcDbEntity
  8
2
370
     9
  6
Continuous
 62
   134
100
AcDbLine
 10
17.223321
 20
147.0
 30
0.0
 11
392.5
 21
147.0
 31
0.0
  0
LINE
  5
327
100
AcDbEntity
  8
2
370
     9
  6
Continuous
 62
   134
100
AcDbLine
 10
339.209557
 20
180.0
 30
0.0
 11
349.345304
 21
180.0
 31
0.0
  0
LINE
  5
328
100
AcDbEntity
  8
2
370
     9
  6
Continuous
 62
   134
100
AcDbLine
 10
340.398318
 20
114.0
 30
0.0
 11
349.345304
 21
114.0
 31
0.0
  0
INSERT
  5
32D
100
AcDbEntity
  8
0
370
     9
  6
Continuous
 62
     7
100
AcDbBlockReference
  2
*G26
 10
0.0
 20
0.0
 30
0.0
  0
INSERT
  5
332
100
AcDbEntity
  8
0
370
     9
  6
Continuous
 62
     7
100
AcDbBlockReference
  2
*G27
 10
0.0
 20
0.0
 30
0.0
  0
INSERT
  5
337
100
AcDbEntity
  8
0
370
     9
  6
Continuous
 62
     7
100
AcDbBlockReference
  2
*G28
 10
0.0
 20
0.0
 30
0.0
  0
INSERT
  5
33E
100
AcDbEntity
  8
0
370
     9
  6
Continuous
 62
     7
100
AcDbBlockReference
  2
*G29
 10
0.0
 20
0.0
 30
0.0
  0
INSERT
  5
343
100
AcDbEntity
  8
0
370
     9
  6
Continuous
 62
     7
100
AcDbBlockReference
  2
*G30
 10
0.0
 20
0.0
 30
0.0
  0
INSERT
  5
34B
100
AcDbEntity
  8
0
370
     9
  6
Continuous
 62
     7
100
AcDbBlockReference
  2
*G31
 10
0.0
 20
0.0
 30
0.0
  0
INSERT
  5
353
100
AcDbEntity
  8
0
370
     9
  6
Continuous
 62
     7
100
AcDbBlockReference
  2
*G32
 10
0.0
 20
0.0
 30
0.0
  0
INSERT
  5
35B
100
AcDbEntity
  8
0
370
     9
  6
Continuous
 62
     7
100
AcDbBlockReference
  2
*G33
 10
0.0
 20
0.0
 30
0.0
  0
INSERT
  5
363
100
AcDbEntity
  8
0
370
     9
  6
Continuous
 62
     7
100
AcDbBlockReference
  2
*G34
 10
0.0
 20
0.0
 30
0.0
  0
INSERT
  5
36B
100
AcDbEntity
  8
0
370
     9
  6
Continuous
 62
     7
100
AcDbBlockReference
  2
*G35
 10
0.0
 20
0.0
 30
0.0
  0
LINE
  5
36C
100
AcDbEntity
  8
2
370
     9
  6
Continuous
 62
   134
100
AcDbLine
 10
291.296223
 20
19.479579
 30
0.0
 11
291.45936
 21
19.479579
 31
0.0
  0
LINE
  5
36D
100
AcDbEntity
  8
2
370
     9
  6
Continuous
 62
   134
100
AcDbLine
 10
291.45936
 20
19.479579
 30
0.0
 11
291.45936
 21
21.036792
 31
0.0
  0
LINE
  5
36E
100
AcDbEntity
  8
2
370
     9
  6
Continuous
 62
   134
100
AcDbLine
 10
291.45936
 20
21.036792
 30
0.0
 11
292.408518
 21
21.036792
 31
0.0
  0
LINE
  5
36F
100
AcDbEntity
  8
2
370
     9
  6
Continuous
 62
   134
100
AcDbLine
 10
292.408518
 20
21.036792
 30
0.0
 11
292.408518
 21
21.377895
 31
0.0
  0
LINE
  5
370
100
AcDbEntity
  8
2
370
     9
  6
Continuous
 62
   134
100
AcDbLine
 10
292.408518
 20
21.377895
 30
0.0
 11
293.268693
 21
21.377895
 31
0.0
  0
LINE
  5
371
100
AcDbEntity
  8
2
370
     9
  6
Continuous
 62
   134
100
AcDbLine
 10
293.268693
 20
21.377895
 30
0.0
 11
293.268693
 21
21.036792
 31
0.0
  0
LINE
  5
372
100
AcDbEntity
  8
2
370
     9
  6
Continuous
 62
   134
100
AcDbLine
 10
293.268693
 20
21.036792
 30
0.0
 11
294.217851
 21
21.036792
 31
0.0
  0
LINE
  5
373
100
AcDbEntity
  8
2
370
     9
  6
Continuous
 62
   134
100
AcDbLine
 10
294.217851
 20
21.036792
 30
0.0
 11
294.217851
 21
19.479579
 31
0.0
  0
LINE
  5
374
100
AcDbEntity
  8
2
370
     9
  6
Continuous
 62
   134
100
AcDbLine
 10
294.217851
 20
19.479579
 30
0.0
 11
294.45514
 21
19.479579
 31
0.0
  0
LINE
  5
375
100
AcDbEntity
  8
2
370
     9
  6
Continuous
 62
   134
100
AcDbLine
 10
294.45514
 20
19.479579
 30
0.0
 11
294.45514
 21
18.871524
 31
0.0
  0
LINE
  5
376
100
AcDbEntity
  8
2
370
     9
  6
Continuous
 62
   134
100
AcDbLine
 10
294.45514
 20
18.871524
 30
0.0
 11
293.628581
 21
18.871524
 31
0.0
  0
LINE
  5
377
100
AcDbEntity
  8
2
370
     9
  6
Continuous
 62
   134
100
AcDbLine
 10
291.296223
 20
18.871524
 30
0.0
 11
292.06346
 21
18.871524
 31
0.0
  0
LINE
  5
378
100
AcDbEntity
  8
2
370
     9
  6
Continuous
 62
   134
100
AcDbLine
 10
292.06346
 20
18.871524
 30
0.0
 11
291.222069
 21
17.794594
 31
0.0
  0
LINE
  5
379
100
AcDbEntity
  8
2
370
     9
  6
Continuous
 62
   134
100
AcDbLine
 10
291.222069
 20
17.794594
 30
0.0
 11
292.045144
 21
17.794594
 31
0.0
  0
LINE
  5
37A
100
AcDbEntity
  8
2
370
     9
  6
Continuous
 62
   134
100
AcDbLine
 10
292.045144
 20
17.794594
 30
0.0
 11
292.84602
 21
18.819669
 31
0.0
  0
LINE
  5
37B
100
AcDbEntity
  8
2
370
     9
  6
Continuous
 62
   134
100
AcDbLine
 10
292.84602
 20
18.819669
 30
0.0
 11
293.646898
 21
17.794594
 31
0.0
  0
LINE
  5
37C
100
AcDbEntity
  8
2
370
     9
  6
Continuous
 62
   134
100
AcDbLine
 10
293.646898
 20
17.794594
 30
0.0
 11
294.469972
 21
17.794594
 31
0.0
  0
LINE
  5
37D
100
AcDbEntity
  8
2
370
     9
  6
Continuous
 62
   134
100
AcDbLine
 10
294.469972
 20
17.794594
 30
0.0
 11
293.628581
 21
18.871524
 31
0.0
  0
LINE
  5
37E
100
AcDbEntity
  8
2
370
     9
  6
Continuous
 62
   134
100
AcDbLine
 10
295.945615
 20
21.377895
 30
0.0
 11
295.337561
 21
21.377895
 31
0.0
  0
LINE
  5
37F
100
AcDbEntity
  8
2
370
     9
  6
Continuous
 62
   134
100
AcDbLine
 10
295.337561
 20
21.377895
 30
0.0
 11
295.337561
 21
20.558727
 31
0.0
  0
LINE
  5
380
100
AcDbEntity
  8
2
370
     9
  6
Continuous
 62
   134
100
AcDbLine
 10
295.337561
 20
20.558727
 30
0.0
 11
294.870397
 21
20.558727
 31
0.0
  0
LINE
  5
381
100
AcDbEntity
  8
2
370
     9
  6
Continuous
 62
   134
100
AcDbLine
 10
294.870397
 20
20.558727
 30
0.0
 11
294.870397
 21
20.015821
 31
0.0
  0
LINE
  5
382
100
AcDbEntity
  8
2
370
     9
  6
Continuous
 62
   134
100
AcDbLine
 10
294.870397
 20
20.015821
 30
0.0
 11
295.337561
 21
20.015821
 31
0.0
  0
LINE
  5
383
100
AcDbEntity
  8
2
370
     9
  6
Continuous
 62
   134
100
AcDbLine
 10
295.337561
 20
20.015821
 30
0.0
 11
294.781414
 21
19.31332
 31
0.0
  0
LINE
  5
384
100
AcDbEntity
  8
2
370
     9
  6
Continuous
 62
   134
100
AcDbLine
 10
294.781414
 20
19.31332
 30
0.0
 11
294.781414
 21
18.292349
 31
0.0
  0
LINE
  5
385
100
AcDbEntity
  8
2
370
     9
  6
Continuous
 62
   134
100
AcDbLine
 10
294.781414
 20
18.292349
 30
0.0
 11
295.337561
 21
18.994851
 31
0.0
  0
LINE
  5
386
100
AcDbEntity
  8
2
370
     9
  6
Continuous
 62
   134
100
AcDbLine
 10
295.337561
 20
18.994851
 30
0.0
 11
295.337561
 21
17.794594
 31
0.0
  0
LINE
  5
387
100
AcDbEntity
  8
2
370
     9
  6
Continuous
 62
   134
100
AcDbLine
 10
295.337561
 20
17.794594
 30
0.0
 11
295.945615
 21
17.794594
 31
0.0
  0
LINE
  5
388
100
AcDbEntity
  8
2
370
     9
  6
Continuous
 62
   134
100
AcDbLine
 10
295.945615
 20
17.794594
 30
0.0
 11
295.945615
 21
19.378635
 31
0.0
  0
LINE
  5
389
100
AcDbEntity
  8
2
370
     9
  6
Continuous
 62
   134
100
AcDbLine
 10
295.945615
 20
19.378635
 30
0.0
 11
296.360872
 21
19.00787
 31
0.0
  0
LINE
  5
38A
100
AcDbEntity
  8
2
370
     9
  6
Continuous
 62
   134
100
AcDbLine
 10
296.360872
 20
19.00787
 30
0.0
 11
296.360872
 21
19.645057
 31
0.0
  0
LINE
  5
38B
100
AcDbEntity
  8
2
370
     9
  6
Continuous
 62
   134
100
AcDbLine
 10
296.360872
 20
19.645057
 30
0.0
 11
295.945615
 21
20.015821
 31
0.0
  0
LINE
  5
38C
100
AcDbEntity
  8
2
370
     9
  6
Continuous
 62
   134
100
AcDbLine
 10
295.945615
 20
20.015821
 30
0.0
 11
296.360872
 21
20.015821
 31
0.0
  0
LINE
  5
38D
100
AcDbEntity
  8
2
370
     9
  6
Continuous
 62
   134
100
AcDbLine
 10
296.360872
 20
20.015821
 30
0.0
 11
296.360872
 21
20.564553
 31
0.0
  0
LINE
  5
38E
100
AcDbEntity
  8
2
370
     9
  6
Continuous
 62
   134
100
AcDbLine
 10
296.360872
 20
20.564553
 30
0.0
 11
295.945615
 21
20.564553
 31
0.0
  0
LINE
  5
38F
100
AcDbEntity
  8
2
370
     9
  6
Continuous
 62
   134
100
AcDbLine
 10
295.945615
 20
20.564553
 30
0.0
 11
295.945615
 21
21.377895
 31
0.0
  0
LINE
  5
390
100
AcDbEntity
  8
2
370
     9
  6
Continuous
 62
   134
100
AcDbLine
 10
297.709691
 20
21.377895
 30
0.0
 11
297.224138
 21
21.377895
 31
0.0
  0
LINE
  5
391
100
AcDbEntity
  8
2
370
     9
  6
Continuous
 62
   134
100
AcDbLine
 10
297.224138
 20
21.377895
 30
0.0
 11
296.360872
 21
19.823023
 31
0.0
  0
LINE
  5
392
100
AcDbEntity
  8
2
370
     9
  6
Continuous
 62
   134
100
AcDbLine
 10
296.360872
 20
19.823023
 30
0.0
 11
297.843932
 21
19.823023
 31
0.0
  0
LINE
  5
393
100
AcDbEntity
  8
2
370
     9
  6
Continuous
 62
   134
100
AcDbLine
 10
297.843932
 20
19.823023
 30
0.0
 11
297.843932
 21
20.4904
 31
0.0
  0
LINE
  5
394
100
AcDbEntity
  8
2
370
     9
  6
Continuous
 62
   134
100
AcDbLine
 10
297.843932
 20
20.4904
 30
0.0
 11
297.369353
 21
20.4904
 31
0.0
  0
LINE
  5
395
100
AcDbEntity
  8
2
370
     9
  6
Continuous
 62
   134
100
AcDbLine
 10
297.369353
 20
20.4904
 30
0.0
 11
297.369353
 21
20.22345
 31
0.0
  0
LINE
  5
396
100
AcDbEntity
  8
2
370
     9
  6
Continuous
 62
   134
100
AcDbLine
 10
297.369353
 20
20.22345
 30
0.0
 11
297.068742
 21
20.22345
 31
0.0
  0
LINE
  5
397
100
AcDbEntity
  8
2
370
     9
  6
Continuous
 62
   134
100
AcDbLine
 10
297.068742
 20
20.22345
 30
0.0
 11
297.709691
 21
21.377895
 31
0.0
  0
LINE
  5
398
100
AcDbEntity
  8
2
370
     9
  6
Continuous
 62
   134
100
AcDbLine
 10
299.348401
 20
21.377895
 30
0.0
 11
298.865588
 21
21.377895
 31
0.0
  0
LINE
  5
399
100
AcDbEntity
  8
2
370
     9
  6
Continuous
 62
   134
100
AcDbLine
 10
298.865588
 20
21.377895
 30
0.0
 11
298.002322
 21
19.823023
 31
0.0
  0
LINE
  5
39A
100
AcDbEntity
  8
2
370
     9
  6
Continuous
 62
   134
100
AcDbLine
 10
298.002322
 20
19.823023
 30
0.0
 11
299.490128
 21
19.823023
 31
0.0
  0
LINE
  5
39B
100
AcDbEntity
  8
2
370
     9
  6
Continuous
 62
   134
100
AcDbLine
 10
299.490128
 20
19.823023
 30
0.0
 11
299.490128
 21
20.4904
 31
0.0
  0
LINE
  5
39C
100
AcDbEntity
  8
2
370
     9
  6
Continuous
 62
   134
100
AcDbLine
 10
299.490128
 20
20.4904
 30
0.0
 11
299.015549
 21
20.4904
 31
0.0
  0
LINE
  5
39D
100
AcDbEntity
  8
2
370
     9
  6
Continuous
 62
   134
100
AcDbLine
 10
299.015549
 20
20.4904
 30
0.0
 11
299.015549
 21
20.22345
 31
0.0
  0
LINE
  5
39E
100
AcDbEntity
  8
2
370
     9
  6
Continuous
 62
   134
100
AcDbLine
 10
299.015549
 20
20.22345
 30
0.0
 11
298.707452
 21
20.22345
 31
0.0
  0
LINE
  5
39F
100
AcDbEntity
  8
2
370
     9
  6
Continuous
 62
   134
100
AcDbLine
 10
298.707452
 20
20.22345
 30
0.0
 11
299.348401
 21
21.377895
 31
0.0
  0
LINE
  5
3A0
100
AcDbEntity
  8
2
370
     9
  6
Continuous
 62
   134
100
AcDbLine
 10
299.490128
 20
19.541242
 30
0.0
 11
299.252839
 21
19.541242
 31
0.0
  0
LINE
  5
3A1
100
AcDbEntity
  8
2
370
     9
  6
Continuous
 62
   134
100
AcDbLine
 10
299.252839
 20
19.541242
 30
0.0
 11
299.252839
 21
19.748871
 31
0.0
  0
LINE
  5
3A2
100
AcDbEntity
  8
2
370
     9
  6
Continuous
 62
   134
100
AcDbLine
 10
299.252839
 20
19.748871
 30
0.0
 11
298.629954
 21
19.748871
 31
0.0
  0
LINE
  5
3A3
100
AcDbEntity
  8
2
370
     9
  6
Continuous
 62
   134
100
AcDbLine
 10
298.629954
 20
19.748871
 30
0.0
 11
298.629954
 21
19.541242
 31
0.0
  0
LINE
  5
3A4
100
AcDbEntity
  8
2
370
     9
  6
Continuous
 62
   134
100
AcDbLine
 10
298.629954
 20
19.541242
 30
0.0
 11
298.164633
 21
19.541242
 31
0.0
  0
LINE
  5
3A5
100
AcDbEntity
  8
2
370
     9
  6
Continuous
 62
   134
100
AcDbLine
 10
298.164633
 20
19.541242
 30
0.0
 11
298.005821
 21
19.750514
 31
0.0
  0
LINE
  5
3A6
100
AcDbEntity
  8
2
370
     9
  6
Continuous
 62
   134
100
AcDbLine
 10
298.005821
 20
19.750514
 30
0.0
 11
297.243653
 21
19.750514
 31
0.0
  0
LINE
  5
3A7
100
AcDbEntity
  8
2
370
     9
  6
Continuous
 62
   134
100
AcDbLine
 10
297.243653
 20
19.750514
 30
0.0
 11
297.402465
 21
19.541242
 31
0.0
  0
LINE
  5
3A8
100
AcDbEntity
  8
2
370
     9
  6
Continuous
 62
   134
100
AcDbLine
 10
297.402465
 20
19.541242
 30
0.0
 11
296.546255
 21
19.541242
 31
0.0
  0
LINE
  5
3A9
100
AcDbEntity
  8
2
370
     9
  6
Continuous
 62
   134
100
AcDbLine
 10
296.546255
 20
19.541242
 30
0.0
 11
296.101337
 21
17.794594
 31
0.0
  0
LINE
  5
3AA
100
AcDbEntity
  8
2
370
     9
  6
Continuous
 62
   134
100
AcDbLine
 10
296.101337
 20
17.794594
 30
0.0
 11
296.745428
 21
17.794594
 31
0.0
  0
LINE
  5
3AB
100
AcDbEntity
  8
2
370
     9
  6
Continuous
 62
   134
100
AcDbLine
 10
296.745428
 20
17.794594
 30
0.0
 11
296.882459
 21
18.332548
 31
0.0
  0
LINE
  5
3AC
100
AcDbEntity
  8
2
370
     9
  6
Continuous
 62
   134
100
AcDbLine
 10
296.882459
 20
18.332548
 30
0.0
 11
297.450921
 21
18.332548
 31
0.0
  0
LINE
  5
3AD
100
AcDbEntity
  8
2
370
     9
  6
Continuous
 62
   134
100
AcDbLine
 10
297.450921
 20
18.332548
 30
0.0
 11
297.310278
 21
18.797371
 31
0.0
  0
LINE
  5
3AE
100
AcDbEntity
  8
2
370
     9
  6
Continuous
 62
   134
100
AcDbLine
 10
297.310278
 20
18.797371
 30
0.0
 11
297.000862
 21
18.797371
 31
0.0
  0
LINE
  5
3AF
100
AcDbEntity
  8
2
370
     9
  6
Continuous
 62
   134
100
AcDbLine
 10
297.000862
 20
18.797371
 30
0.0
 11
297.088346
 21
19.140816
 31
0.0
  0
LINE
  5
3B0
100
AcDbEntity
  8
2
370
     9
  6
Continuous
 62
   134
100
AcDbLine
 10
297.088346
 20
19.140816
 30
0.0
 11
297.706339
 21
19.140816
 31
0.0
  0
LINE
  5
3B1
100
AcDbEntity
  8
2
370
     9
  6
Continuous
 62
   134
100
AcDbLine
 10
297.706339
 20
19.140816
 30
0.0
 11
298.138583
 21
18.571234
 31
0.0
  0
LINE
  5
3B2
100
AcDbEntity
  8
2
370
     9
  6
Continuous
 62
   134
100
AcDbLine
 10
298.138583
 20
18.571234
 30
0.0
 11
297.525074
 21
18.317718
 31
0.0
  0
LINE
  5
3B3
100
AcDbEntity
  8
2
370
     9
  6
Continuous
 62
   134
100
AcDbLine
 10
297.525074
 20
18.317718
 30
0.0
 11
297.525074
 21
17.768373
 31
0.0
  0
LINE
  5
3B4
100
AcDbEntity
  8
2
370
     9
  6
Continuous
 62
   134
100
AcDbLine
 10
297.525074
 20
17.768373
 30
0.0
 11
298.455948
 21
18.153032
 31
0.0
  0
LINE
  5
3B5
100
AcDbEntity
  8
2
370
     9
  6
Continuous
 62
   134
100
AcDbLine
 10
298.455948
 20
18.153032
 30
0.0
 11
298.72796
 21
17.794594
 31
0.0
  0
LINE
  5
3B6
100
AcDbEntity
  8
2
370
     9
  6
Continuous
 62
   134
100
AcDbLine
 10
298.72796
 20
17.794594
 30
0.0
 11
299.490128
 21
17.794594
 31
0.0
  0
LINE
  5
3B7
100
AcDbEntity
  8
2
370
     9
  6
Continuous
 62
   134
100
AcDbLine
 10
299.490128
 20
17.794594
 30
0.0
 11
299.036168
 21
18.392792
 31
0.0
  0
LINE
  5
3B8
100
AcDbEntity
  8
2
370
     9
  6
Continuous
 62
   134
100
AcDbLine
 10
299.036168
 20
18.392792
 30
0.0
 11
299.319576
 21
18.509903
 31
0.0
  0
LINE
  5
3B9
100
AcDbEntity
  8
2
370
     9
  6
Continuous
 62
   134
100
AcDbLine
 10
299.319576
 20
18.509903
 30
0.0
 11
299.319576
 21
19.059247
 31
0.0
  0
LINE
  5
3BA
100
AcDbEntity
  8
2
370
     9
  6
Continuous
 62
   134
100
AcDbLine
 10
299.319576
 20
19.059247
 30
0.0
 11
298.718803
 21
18.810994
 31
0.0
  0
LINE
  5
3BB
100
AcDbEntity
  8
2
370
     9
  6
Continuous
 62
   134
100
AcDbLine
 10
298.718803
 20
18.810994
 30
0.0
 11
298.468508
 21
19.140816
 31
0.0
  0
LINE
  5
3BC
100
AcDbEntity
  8
2
370
     9
  6
Continuous
 62
   134
100
AcDbLine
 10
298.468508
 20
19.140816
 30
0.0
 11
299.490128
 21
19.140816
 31
0.0
  0
LINE
  5
3BD
100
AcDbEntity
  8
2
370
     9
  6
Continuous
 62
   134
100
AcDbLine
 10
299.490128
 20
19.140816
 30
0.0
 11
299.490128
 21
19.541242
 31
0.0
  0
INSERT
  5
3C5
100
AcDbEntity
  8
0
370
     9
  6
Continuous
 62
     7
100
AcDbBlockReference
  2
*G36
 10
0.0
 20
0.0
 30
0.0
  0
INSERT
  5
3CD
100
AcDbEntity
  8
0
370
     9
  6
Continuous
 62
     7
100
AcDbBlockReference
  2
*G37
 10
0.0
 20
0.0
 30
0.0
  0
LINE
  5
3CE
100
AcDbEntity
  8
2
370
     9
  6
Continuous
 62
   134
100
AcDbLine
 10
306.222403
 20
21.031717
 30
0.0
 11
306.000113
 21
21.377895
 31
0.0
  0
LINE
  5
3CF
100
AcDbEntity
  8
2
370
     9
  6
Continuous
 62
   134
100
AcDbLine
 10
306.000113
 20
21.377895
 30
0.0
 11
305.332906
 21
21.377895
 31
0.0
  0
LINE
  5
3D0
100
AcDbEntity
  8
2
370
     9
  6
Continuous
 62
   134
100
AcDbLine
 10
305.332906
 20
21.377895
 30
0.0
 11
305.555195
 21
21.031717
 31
0.0
  0
LINE
  5
3D1
100
AcDbEntity
  8
2
370
     9
  6
Continuous
 62
   134
100
AcDbLine
 10
308.89208
 20
21.031717
 30
0.0
 11
309.115694
 21
21.377895
 31
0.0
  0
LINE
  5
3D2
100
AcDbEntity
  8
2
370
     9
  6
Continuous
 62
   134
100
AcDbLine
 10
309.115694
 20
21.377895
 30
0.0
 11
308.451822
 21
21.377895
 31
0.0
  0
LINE
  5
3D3
100
AcDbEntity
  8
2
370
     9
  6
Continuous
 62
   134
100
AcDbLine
 10
308.451822
 20
21.377895
 30
0.0
 11
308.228208
 21
21.031717
 31
0.0
  0
LINE
  5
3D4
100
AcDbEntity
  8
2
370
     9
  6
Continuous
 62
   134
100
AcDbLine
 10
305.808014
 20
20.497816
 30
0.0
 11
306.036567
 21
20.141881
 31
0.0
  0
LINE
  5
3D5
100
AcDbEntity
  8
2
370
     9
  6
Continuous
 62
   134
100
AcDbLine
 10
306.793787
 20
20.141881
 30
0.0
 11
306.565233
 21
20.497816
 31
0.0
  0
LINE
  5
3D6
100
AcDbEntity
  8
2
370
     9
  6
Continuous
 62
   134
100
AcDbLine
 10
307.883334
 20
20.497816
 30
0.0
 11
307.653418
 21
20.141881
 31
0.0
  0
LINE
  5
3D7
100
AcDbEntity
  8
2
370
     9
  6
Continuous
 62
   134
100
AcDbLine
 10
308.406817
 20
20.141881
 30
0.0
 11
308.636733
 21
20.497816
 31
0.0
  0
LINE
  5
3D8
100
AcDbEntity
  8
2
370
     9
  6
Continuous
 62
   134
100
AcDbLine
 10
305.621933
 20
18.258395
 30
0.0
 11
305.088031
 21
17.794594
 31
0.0
  0
LINE
  5
3D9
100
AcDbEntity
  8
2
370
     9
  6
Continuous
 62
   134
100
AcDbLine
 10
305.088031
 20
17.794594
 30
0.0
 11
305.949496
 21
17.794594
 31
0.0
  0
LINE
  5
3DA
100
AcDbEntity
  8
2
370
     9
  6
Continuous
 62
   134
100
AcDbLine
 10
305.949496
 20
17.794594
 30
0.0
 11
306.483398
 21
18.258395
 31
0.0
  0
LINE
  5
3DB
100
AcDbEntity
  8
2
370
     9
  6
Continuous
 62
   134
100
AcDbLine
 10
308.008347
 20
18.258395
 30
0.0
 11
308.520741
 21
17.794594
 31
0.0
  0
LINE
  5
3DC
100
AcDbEntity
  8
2
370
     9
  6
Continuous
 62
   134
100
AcDbLine
 10
308.520741
 20
17.794594
 30
0.0
 11
309.388905
 21
17.794594
 31
0.0
  0
LINE
  5
3DD
100
AcDbEntity
  8
2
370
     9
  6
Continuous
 62
   134
100
AcDbLine
 10
309.388905
 20
17.794594
 30
0.0
 11
308.869835
 21
18.258395
 31
0.0
  0
LINE
  5
3DE
100
AcDbEntity
  8
2
370
     9
  6
Continuous
 62
   134
100
AcDbLine
 10
312.184472
 20
19.474504
 30
0.0
 11
311.546757
 21
17.794594
 31
0.0
  0
LINE
  5
3DF
100
AcDbEntity
  8
2
370
     9
  6
Continuous
 62
   134
100
AcDbLine
 10
311.546757
 20
17.794594
 30
0.0
 11
312.304472
 21
17.794594
 31
0.0
  0
LINE
  5
3E0
100
AcDbEntity
  8
2
370
     9
  6
Continuous
 62
   134
100
AcDbLine
 10
312.304472
 20
17.794594
 30
0.0
 11
312.666467
 21
18.748183
 31
0.0
  0
LINE
  5
3E1
100
AcDbEntity
  8
2
370
     9
  6
Continuous
 62
   134
100
AcDbLine
 10
313.526641
 20
18.748184
 30
0.0
 11
313.880218
 21
17.794594
 31
0.0
  0
LINE
  5
3E2
100
AcDbEntity
  8
2
370
     9
  6
Continuous
 62
   134
100
AcDbLine
 10
313.880218
 20
17.794594
 30
0.0
 11
314.61669
 21
17.794594
 31
0.0
  0
LINE
  5
3E3
100
AcDbEntity
  8
2
370
     9
  6
Continuous
 62
   134
100
AcDbLine
 10
314.61669
 20
17.794594
 30
0.0
 11
313.993805
 21
19.474504
 31
0.0
  0
INSERT
  5
3EB
100
AcDbEntity
  8
0
370
     9
  6
Continuous
 62
     7
100
AcDbBlockReference
  2
*G38
 10
0.0
 20
0.0
 30
0.0
  0
LINE
  5
3EC
100
AcDbEntity
  8
2
370
     9
  6
Continuous
 62
   134
100
AcDbLine
 10
315.832799
 20
19.148231
 30
0.0
 11
315.832799
 21
18.488039
 31
0.0
  0
LINE
  5
3ED
100
AcDbEntity
  8
2
370
     9
  6
Continuous
 62
   134
100
AcDbLine
 10
316.60399
 20
19.148231
 30
0.0
 11
316.60399
 21
18.59119
 31
0.0
  0
LINE
  5
3EE
100
AcDbEntity
  8
2
370
     9
  6
Continuous
 62
   134
100
AcDbLine
 10
315.832799
 20
18.488039
 30
0.0
 11
314.972625
 21
18.372987
 31
0.0
  0
LINE
  5
3EF
100
AcDbEntity
  8
2
370
     9
  6
Continuous
 62
   134
100
AcDbLine
 10
314.972625
 20
18.372987
 30
0.0
 11
314.972625
 21
17.794593
 31
0.0
  0
LINE
  5
3F0
100
AcDbEntity
  8
2
370
     9
  6
Continuous
 62
   134
100
AcDbLine
 10
314.972625
 20
17.794593
 30
0.0
 11
317.553149
 21
18.139751
 31
0.0
  0
LINE
  5
3F1
100
AcDbEntity
  8
2
370
     9
  6
Continuous
 62
   134
100
AcDbLine
 10
317.553149
 20
18.139751
 30
0.0
 11
317.553149
 21
18.718144
 31
0.0
  0
LINE
  5
3F2
100
AcDbEntity
  8
2
370
     9
  6
Continuous
 62
   134
100
AcDbLine
 10
317.553149
 20
18.718144
 30
0.0
 11
316.60399
 21
18.59119
 31
0.0
  0
LINE
  5
3F3
100
AcDbEntity
  8
2
370
     9
  6
Continuous
 62
   134
100
AcDbLine
 10
317.612471
 20
21.377895
 30
0.0
 11
316.767127
 21
21.377895
 31
0.0
  0
LINE
  5
3F4
100
AcDbEntity
  8
2
370
     9
  6
Continuous
 62
   134
100
AcDbLine
 10
318.82858
 20
17.794594
 30
0.0
 11
319.673924
 21
17.794594
 31
0.0
  0
LINE
  5
3F5
100
AcDbEntity
  8
2
370
     9
  6
Continuous
 62
   134
100
AcDbLine
 10
320.000197
 20
19.60798
 30
0.0
 11
320.000197
 21
20.334679
 31
0.0
  0
LINE
  5
3F6
100
AcDbEntity
  8
2
370
     9
  6
Continuous
 62
   134
100
AcDbLine
 10
320.000197
 20
20.334679
 30
0.0
 11
322.358262
 21
21.377895
 31
0.0
  0
LINE
  5
3F7
100
AcDbEntity
  8
2
370
     9
  6
Continuous
 62
   134
100
AcDbLine
 10
322.358262
 20
21.377895
 30
0.0
 11
324.716327
 21
20.334679
 31
0.0
  0
LINE
  5
3F8
100
AcDbEntity
  8
2
370
     9
  6
Continuous
 62
   134
100
AcDbLine
 10
324.716327
 20
20.334679
 30
0.0
 11
324.716327
 21
19.60798
 31
0.0
  0
LINE
  5
3F9
100
AcDbEntity
  8
2
370
     9
  6
Continuous
 62
   134
100
AcDbLine
 10
324.716327
 20
19.60798
 30
0.0
 11
324.093442
 21
19.88122
 31
0.0
  0
LINE
  5
3FA
100
AcDbEntity
  8
2
370
     9
  6
Continuous
 62
   134
100
AcDbLine
 10
324.093442
 20
19.88122
 30
0.0
 11
324.093442
 21
19.682133
 31
0.0
  0
LINE
  5
3FB
100
AcDbEntity
  8
2
370
     9
  6
Continuous
 62
   134
100
AcDbLine
 10
324.093442
 20
19.682133
 30
0.0
 11
320.637913
 21
19.682133
 31
0.0
  0
LINE
  5
3FC
100
AcDbEntity
  8
2
370
     9
  6
Continuous
 62
   134
100
AcDbLine
 10
320.637913
 20
19.682133
 30
0.0
 11
320.637913
 21
19.88778
 31
0.0
  0
LINE
  5
3FD
100
AcDbEntity
  8
2
370
     9
  6
Continuous
 62
   134
100
AcDbLine
 10
320.637913
 20
19.88778
 30
0.0
 11
320.000197
 21
19.60798
 31
0.0
  0
LINE
  5
3FE
100
AcDbEntity
  8
2
370
     9
  6
Continuous
 62
   134
100
AcDbLine
 10
322.358262
 20
20.648869
 30
0.0
 11
321.379891
 21
20.216034
 31
0.0
  0
LINE
  5
3FF
100
AcDbEntity
  8
2
370
     9
  6
Continuous
 62
   134
100
AcDbLine
 10
321.379891
 20
20.216034
 30
0.0
 11
323.336633
 21
20.216034
 31
0.0
  0
LINE
  5
400
100
AcDbEntity
  8
2
370
     9
  6
Continuous
 62
   134
100
AcDbLine
 10
323.336633
 20
20.216034
 30
0.0
 11
322.358262
 21
20.648869
 31
0.0
  0
LINE
  5
401
100
AcDbEntity
  8
2
370
     9
  6
Continuous
 62
   134
100
AcDbLine
 10
320.000197
 20
19.281707
 30
0.0
 11
320.000197
 21
18.732975
 31
0.0
  0
LINE
  5
402
100
AcDbEntity
  8
2
370
     9
  6
Continuous
 62
   134
100
AcDbLine
 10
320.000197
 20
18.732975
 30
0.0
 11
320.904864
 21
18.732975
 31
0.0
  0
LINE
  5
403
100
AcDbEntity
  8
2
370
     9
  6
Continuous
 62
   134
100
AcDbLine
 10
320.904864
 20
18.732975
 30
0.0
 11
320.163334
 21
17.794594
 31
0.0
  0
LINE
  5
404
100
AcDbEntity
  8
2
370
     9
  6
Continuous
 62
   134
100
AcDbLine
 10
320.163334
 20
17.794594
 30
0.0
 11
324.55319
 21
17.794594
 31
0.0
  0
LINE
  5
405
100
AcDbEntity
  8
2
370
     9
  6
Continuous
 62
   134
100
AcDbLine
 10
324.55319
 20
17.794594
 30
0.0
 11
323.81166
 21
18.732975
 31
0.0
  0
LINE
  5
406
100
AcDbEntity
  8
2
370
     9
  6
Continuous
 62
   134
100
AcDbLine
 10
323.81166
 20
18.732975
 30
0.0
 11
324.716327
 21
18.732975
 31
0.0
  0
LINE
  5
407
100
AcDbEntity
  8
2
370
     9
  6
Continuous
 62
   134
100
AcDbLine
 10
324.716327
 20
18.732975
 30
0.0
 11
324.716327
 21
19.281707
 31
0.0
  0
LINE
  5
408
100
AcDbEntity
  8
2
370
     9
  6
Continuous
 62
   134
100
AcDbLine
 10
324.716327
 20
19.281707
 30
0.0
 11
320.000197
 21
19.281707
 31
0.0
  0
LINE
  5
409
100
AcDbEntity
  8
2
370
     9
  6
Continuous
 62
   134
100
AcDbLine
 10
321.844174
 20
18.732975
 30
0.0
 11
321.527748
 21
18.332548
 31
0.0
  0
LINE
  5
40A
100
AcDbEntity
  8
2
370
     9
  6
Continuous
 62
   134
100
AcDbLine
 10
321.527748
 20
18.332548
 30
0.0
 11
323.188776
 21
18.332548
 31
0.0
  0
LINE
  5
40B
100
AcDbEntity
  8
2
370
     9
  6
Continuous
 62
   134
100
AcDbLine
 10
323.188776
 20
18.332548
 30
0.0
 11
322.872349
 21
18.732975
 31
0.0
  0
LINE
  5
40C
100
AcDbEntity
  8
2
370
     9
  6
Continuous
 62
   134
100
AcDbLine
 10
322.872349
 20
18.732975
 30
0.0
 11
321.844174
 21
18.732975
 31
0.0
  0
LINE
  5
40D
100
AcDbEntity
  8
2
370
     9
  6
Continuous
 62
   134
100
AcDbLine
 10
325.836914
 20
20.898242
 30
0.0
 11
325.836914
 21
21.377895
 31
0.0
  0
LINE
  5
40E
100
AcDbEntity
  8
2
370
     9
  6
Continuous
 62
   134
100
AcDbLine
 10
325.836914
 20
21.377895
 30
0.0
 11
326.533952
 21
21.377895
 31
0.0
  0
LINE
  5
40F
100
AcDbEntity
  8
2
370
     9
  6
Continuous
 62
   134
100
AcDbLine
 10
326.533952
 20
21.377895
 30
0.0
 11
326.533952
 21
20.898242
 31
0.0
  0
LINE
  5
410
100
AcDbEntity
  8
2
370
     9
  6
Continuous
 62
   134
100
AcDbLine
 10
326.533952
 20
20.898242
 30
0.0
 11
327.115594
 21
20.898242
 31
0.0
  0
LINE
  5
411
100
AcDbEntity
  8
2
370
     9
  6
Continuous
 62
   134
100
AcDbLine
 10
327.115594
 20
20.898242
 30
0.0
 11
326.533952
 21
19.745932
 31
0.0
  0
LINE
  5
412
100
AcDbEntity
  8
2
370
     9
  6
Continuous
 62
   134
100
AcDbLine
 10
326.533952
 20
19.745932
 30
0.0
 11
327.011948
 21
19.400352
 31
0.0
  0
LINE
  5
413
100
AcDbEntity
  8
2
370
     9
  6
Continuous
 62
   134
100
AcDbLine
 10
327.011948
 20
19.400352
 30
0.0
 11
327.011948
 21
18.666171
 31
0.0
  0
LINE
  5
414
100
AcDbEntity
  8
2
370
     9
  6
Continuous
 62
   134
100
AcDbLine
 10
327.011948
 20
18.666171
 30
0.0
 11
326.533952
 21
19.011752
 31
0.0
  0
LINE
  5
415
100
AcDbEntity
  8
2
370
     9
  6
Continuous
 62
   134
100
AcDbLine
 10
326.533952
 20
19.011752
 30
0.0
 11
326.533952
 21
17.794594
 31
0.0
  0
LINE
  5
416
100
AcDbEntity
  8
2
370
     9
  6
Continuous
 62
   134
100
AcDbLine
 10
326.533952
 20
17.794594
 30
0.0
 11
325.836914
 21
17.794594
 31
0.0
  0
LINE
  5
417
100
AcDbEntity
  8
2
370
     9
  6
Continuous
 62
   134
100
AcDbLine
 10
325.836914
 20
17.794594
 30
0.0
 11
325.836914
 21
18.732975
 31
0.0
  0
LINE
  5
418
100
AcDbEntity
  8
2
370
     9
  6
Continuous
 62
   134
100
AcDbLine
 10
325.836914
 20
18.732975
 30
0.0
 11
325.050892
 21
18.732975
 31
0.0
  0
LINE
  5
419
100
AcDbEntity
  8
2
370
     9
  6
Continuous
 62
   134
100
AcDbLine
 10
325.050892
 20
18.732975
 30
0.0
 11
325.836914
 21
20.290187
 31
0.0
  0
LINE
  5
41A
100
AcDbEntity
  8
2
370
     9
  6
Continuous
 62
   134
100
AcDbLine
 10
325.836914
 20
20.290187
 30
0.0
 11
325.125045
 21
20.290187
 31
0.0
  0
LINE
  5
41B
100
AcDbEntity
  8
2
370
     9
  6
Continuous
 62
   134
100
AcDbLine
 10
325.125045
 20
20.290187
 30
0.0
 11
325.125045
 21
20.898242
 31
0.0
  0
LINE
  5
41C
100
AcDbEntity
  8
2
370
     9
  6
Continuous
 62
   134
100
AcDbLine
 10
325.125045
 20
20.898242
 30
0.0
 11
325.836914
 21
20.898242
 31
0.0
  0
INSERT
  5
425
100
AcDbEntity
  8
0
370
     9
  6
Continuous
 62
     7
100
AcDbBlockReference
  2
*G39
 10
0.0
 20
0.0
 30
0.0
  0
INSERT
  5
42E
100
AcDbEntity
  8
0
370
     9
  6
Continuous
 62
     7
100
AcDbBlockReference
  2
*G40
 10
0.0
 20
0.0
 30
0.0
  0
INSERT
  5
435
100
AcDbEntity
  8
0
370
     9
  6
Continuous
 62
     7
100
AcDbBlockReference
  2
*G41
 10
0.0
 20
0.0
 30
0.0
  0
INSERT
  5
43C
100
AcDbEntity
  8
0
370
     9
  6
Continuous
 62
     7
100
AcDbBlockReference
  2
*G42
 10
0.0
 20
0.0
 30
0.0
  0
INSERT
  5
44A
100
AcDbEntity
  8
0
370
     9
  6
Continuous
 62
     7
100
AcDbBlockReference
  2
*G43
 10
0.0
 20
0.0
 30
0.0
  0
INSERT
  5
454
100
AcDbEntity
  8
0
370
     9
  6
Continuous
 62
     7
100
AcDbBlockReference
  2
*G44
 10
0.0
 20
0.0
 30
0.0
  0
INSERT
  5
45F
100
AcDbEntity
  8
0
370
     9
  6
Continuous
 62
     7
100
AcDbBlockReference
  2
*G45
 10
0.0
 20
0.0
 30
0.0
  0
INSERT
  5
46B
100
AcDbEntity
  8
0
370
     9
  6
Continuous
 62
     7
100
AcDbBlockReference
  2
*G46
 10
0.0
 20
0.0
 30
0.0
  0
INSERT
  5
476
100
AcDbEntity
  8
0
370
     9
  6
Continuous
 62
     7
100
AcDbBlockReference
  2
*G47
 10
0.0
 20
0.0
 30
0.0
  0
INSERT
  5
480
100
AcDbEntity
  8
0
370
     9
  6
Continuous
 62
     7
100
AcDbBlockReference
  2
*G48
 10
0.0
 20
0.0
 30
0.0
  0
INSERT
  5
488
100
AcDbEntity
  8
0
370
     9
  6
Continuous
 62
     7
100
AcDbBlockReference
  2
*G49
 10
0.0
 20
0.0
 30
0.0
  0
INSERT
  5
494
100
AcDbEntity
  8
0
370
     9
  6
Continuous
 62
     7
100
AcDbBlockReference
  2
*G50
 10
0.0
 20
0.0
 30
0.0
  0
INSERT
  5
49E
100
AcDbEntity
  8
0
370
     9
  6
Continuous
 62
     7
100
AcDbBlockReference
  2
*G51
 10
0.0
 20
0.0
 30
0.0
  0
INSERT
  5
4A7
100
AcDbEntity
  8
0
370
     9
  6
Continuous
 62
     7
100
AcDbBlockReference
  2
*G52
 10
0.0
 20
0.0
 30
0.0
  0
INSERT
  5
4B1
100
AcDbEntity
  8
0
370
     9
  6
Continuous
 62
     7
100
AcDbBlockReference
  2
*G53
 10
0.0
 20
0.0
 30
0.0
  0
LINE
  5
4B2
100
AcDbEntity
  8
2
370
     9
  6
Continuous
 62
   134
100
AcDbLine
 10
316.767127
 20
21.377895
 30
0.0
 11
317.119857
 21
20.764766
 31
0.0
  0
LINE
  5
4B3
100
AcDbEntity
  8
2
370
     9
  6
Continuous
 62
   134
100
AcDbLine
 10
317.469667
 20
20.156712
 30
0.0
 11
318.82858
 21
17.794594
 31
0.0
  0
LINE
  5
4B4
100
AcDbEntity
  8
2
370
     9
  6
Continuous
 62
   134
100
AcDbLine
 10
319.673924
 20
17.794594
 30
0.0
 11
318.315011
 21
20.156712
 31
0.0
  0
LINE
  5
4B5
100
AcDbEntity
  8
2
370
     9
  6
Continuous
 62
   134
100
AcDbLine
 10
317.9652
 20
20.764766
 30
0.0
 11
317.612471
 21
21.377895
 31
0.0
  0
INSERT
  5
4BF
100
AcDbEntity
  8
0
370
     9
  6
Continuous
 62
     7
100
AcDbBlockReference
  2
*G54
 10
0.0
 20
0.0
 30
0.0
  0
INSERT
  5
4C8
100
AcDbEntity
  8
0
370
     9
  6
Continuous
 62
     7
100
AcDbBlockReference
  2
*G55
 10
0.0
 20
0.0
 30
0.0
  0
INSERT
  5
4D1
100
AcDbEntity
  8
0
370
     9
  6
Continuous
 62
     7
100
AcDbBlockReference
  2
*G56
 10
0.0
 20
0.0
 30
0.0
  0
LINE
  5
4D2
100
AcDbEntity
  8
2
370
     9
  6
Continuous
 62
   134
100
AcDbLine
 10
310.456708
 20
19.889761
 30
0.0
 11
309.907976
 21
19.13608
 31
0.0
  0
LINE
  5
4D3
100
AcDbEntity
  8
2
370
     9
  6
Continuous
 62
   134
100
AcDbLine
 10
309.907976
 20
19.13608
 30
0.0
 11
309.907976
 21
18.179954
 31
0.0
  0
LINE
  5
4D4
100
AcDbEntity
  8
2
370
     9
  6
Continuous
 62
   134
100
AcDbLine
 10
309.907976
 20
18.179954
 30
0.0
 11
310.456708
 21
18.933635
 31
0.0
  0
LINE
  5
4D5
100
AcDbEntity
  8
2
370
     9
  6
Continuous
 62
   134
100
AcDbLine
 10
311.153746
 20
19.180326
 30
0.0
 11
311.628325
 21
18.729671
 31
0.0
  0
LINE
  5
4D6
100
AcDbEntity
  8
2
370
     9
  6
Continuous
 62
   134
100
AcDbLine
 10
311.628325
 20
18.729671
 30
0.0
 11
311.628325
 21
19.440356
 31
0.0
  0
LINE
  5
4D7
100
AcDbEntity
  8
2
370
     9
  6
Continuous
 62
   134
100
AcDbLine
 10
311.628325
 20
19.440356
 30
0.0
 11
311.153746
 21
19.8889
 31
0.0
  0
INSERT
  5
4E1
100
AcDbEntity
  8
0
370
     9
  6
Continuous
 62
     7
100
AcDbBlockReference
  2
*G57
 10
0.0
 20
0.0
 30
0.0
  0
INSERT
  5
4EA
100
AcDbEntity
  8
0
370
     9
  6
Continuous
 62
     7
100
AcDbBlockReference
  2
*G58
 10
0.0
 20
0.0
 30
0.0
  0
INSERT
  5
4F0
100
AcDbEntity
  8
0
370
     9
  6
Continuous
 62
     7
100
AcDbBlockReference
  2
*G59
 10
0.0
 20
0.0
 30
0.0
  0
ENDSEC
  0
SECTION
  2
OBJECTS
  0
DICTIONARY
  5
19
100
AcDbDictionary
280
     0
281
     1
  3
ACAD_GROUP
350
1A
  3
ACAD_MLINESTYLE
350
1B
  3
ACAD_LAYOUT
350
1E
  3
ACAD_PLOTSETTINGS
350
22
  3
ACAD_PLOTSTYLENAME
350
1F
  3
ACAD_WIPEOUT_VARS
350
23
  0
DICTIONARY
  5
1A
102
{ACAD_REACTORS
330
19
102
}
100
AcDbDictionary
280
     0
281
     1
  0
DICTIONARY
  5
1B
102
{ACAD_REACTORS
330
19
102
}
100
AcDbDictionary
280
     0
281
     1
  3
Standard
350
1C
  0
MLINESTYLE
  5
1C
102
{ACAD_REACTORS
330
1B
102
}
100
AcDbMlineStyle
  2
Standard
 70
     0
  3

 62
     0
 51
90.0
 52
90.0
 71
     2
 49
0.5
 62
   256
  6
ByLayer
 49
-0.5
 62
   256
  6
ByLayer
  0
ACDBDICTIONARYWDFLT
  5
1F
102
{ACAD_REACTORS
330
19
102
}
100
AcDbDictionary
281
     1
  3
Normal
350
1D
100
AcDbDictionaryWithDefault
340
1D
  0
ACDBPLACEHOLDER
  5
1D
102
{ACAD_REACTORS
330
1F
102
}
  0
LAYOUT
  5
20
102
{ACAD_REACTORS
330
1E
102
}
100
AcDbPlotSettings
  1

  2

  4

  6

 40
0.0
 41
0.0
 42
0.0
 43
0.0
 44
0.0
 45
0.0
 46
0.0
 47
0.0
 48
0.0
 49
0.0
140
0.0
141
0.0
142
1.0
143
1.0
 70
  1024
 72
     0
 73
     0
 74
     0
  7

 75
     0
147
1.0
148
0.0
149
0.0
100
AcDbLayout
  1
Model
 70
     0
 71
     0
 10
0.0
 20
0.0
 11
0.0
 21
0.0
 12
0.0
 22
0.0
 32
0.0
 14
0.0
 24
0.0
 34
0.0
 15
0.0
 25
0.0
 35
0.0
146
0.0
 13
0.0
 23
0.0
 33
0.0
 16
0.0
 26
0.0
 36
0.0
 17
0.0
 27
0.0
 37
0.0
 76
     0
330
A
331
0
345
0
346
0
  0
LAYOUT
  5
21
102
{ACAD_REACTORS
330
1E
102
}
100
AcDbPlotSettings
  1

  2

  4

  6

 40
0.0
 41
0.0
 42
0.0
 43
0.0
 44
0.0
 45
0.0
 46
0.0
 47
0.0
 48
0.0
 49
0.0
140
0.0
141
0.0
142
1.0
143
1.0
 70
     0
 72
     0
 73
     0
 74
     0
  7

 75
     0
147
1.0
148
0.0
149
0.0
100
AcDbLayout
  1
Layout1
 70
     0
 71
     0
 10
0.0
 20
0.0
 11
0.0
 21
0.0
 12
0.0
 22
0.0
 32
0.0
 14
0.0
 24
0.0
 34
0.0
 15
0.0
 25
0.0
 35
0.0
146
0.0
 13
0.0
 23
0.0
 33
0.0
 16
0.0
 26
0.0
 36
0.0
 17
0.0
 27
0.0
 37
0.0
 76
     0
330
B
331
0
345
0
346
0
  0
DICTIONARY
  5
1E
102
{ACAD_REACTORS
330
19
102
}
100
AcDbDictionary
280
     0
281
     1
  3
Layout1
350
21
  3
Model
350
20
  0
DICTIONARY
  5
22
102
{ACAD_REACTORS
330
19
102
}
100
AcDbDictionary
280
     0
281
     1
  0
WIPEOUTVARIABLES
  5
23
100
AcDbWipeoutVariables
 70
     1
  0
ENDSEC
  0
EOF
